Одинокий странник / Lone Runner (Руджеро Деодато / Ruggero Deodato) [1986, Италия, Боевик, LDRip] AVO (Юрий Живов)

DL-List and Torrent activity
Size:  743 MB   |    Registered:  2 years 10 months   |    Completed:  16 times
Seeders:  2  
 
   
 
 

Max Levien ®

Longevity:
2 years 10 months
Posts:
20374

[Quote] 

Одинокий странник / Lone Runner
Страна: Италия
Жанр: Боевик
Год выпуска: 1986
Продолжительность: 01:23:47
Перевод: Авторский (одноголосый закадровый) Юрий Живов
Субтитры: нет
Режиссер: Руджеро Деодато / Ruggero Deodato
В ролях: Майлз О’Киффи, Савина Гершак, Дональд Ходсон, Рональд Лейси, Джон Стайнер, Майкл Аронин, Харукико Яманоути, Оттавиано Дэлль’Акква, Хелен Стёрлинг
Описание: Как и многие коллеги по цеху Руджеро Деодато во второй половине 1980-х обратился к жанру приключенческого кино и в 1986 году выпускает картину «Одинокий странник». Это не стандартная попытка подражать Индиане Джонсу, а попытка перенести спагетти-вестерн в пустыню, сохранив многие атрибуты жанра.
Главный герой фильма – типичный персонаж из спагетти-вестернов. Он меланхоличен и немногословен, всегда путешествует один и никто о нём ничего не знает. Он неохотно идет на контакт с людьми, а также мастерски владеет своим оружием и может выбраться из любой передряги.
Доп. информация: Исходник LDRip-DVD5(Custom) (СПАСИБО! tong777)
Сэмпл: http://multi-up.com/1095949
Качество видео: LDRip
Формат видео: AVI
Видео: XviD build 50, 640x480 (1.33:1), 23.976 fps, 1039 kbps avg
Аудио: AC3 Dolby Digital, 48 kHz, 2/0 (L,R) ch, 192.00 kbps

MediaInfo

General
Complete name : F:\Odinokij.strannik.1986.XviD.LDRip-Dego.avi
Format : AVI
Format/Info : Audio Video Interleave
File size : 743 MiB
Duration : 1h 23mn
Overall bit rate : 1 240 Kbps
Writing application : VirtualDubMod 1.5.10.2 (build 2540/release)
Writing library : VirtualDubMod build 2540/release
Video
ID : 0
Format : MPEG-4 Visual
Format profile : [email protected]
Format settings, BVOP : Yes
Format settings, QPel : No
Format settings, GMC : No warppoints
Format settings, Matrix : Custom
Codec ID : XVID
Codec ID/Hint : XviD
Duration : 1h 23mn
Bit rate : 1 039 Kbps
Width : 640 pixels
Height : 480 pixels
Display aspect ratio : 4/3
Frame rate : 23.976 fps
Resolution : 24 bits
Colorimetry : 4:2:0
Scan type : Progressive
Bits/(Pixel*Frame) : 0.141
Stream size : 623 MiB (84%)
Writing library : XviD 1.2.1 (UTC 2008-12-04)
Audio
ID : 1
Format : AC-3
Format/Info : Audio Coding 3
Codec ID : 2000
Duration : 1h 23mn
Bit rate mode : Constant
Bit rate : 192 Kbps
Channel(s) : 2 channels
Channel positions : L R
Sampling rate : 48.0 KHz
Stream size : 115 MiB (15%)
Alignment : Split accross interleaves
Interleave, duration : 42 ms (1.00 video frame)
Interleave, preload duration : 500 ms

Скриншоты

If your ratio falls below 0.3, you will not be able to download Torrents! More about the rating.

[erzsebet.pl].t48952.torrent
Torrent: Registered   [ 2017-12-10 22:03 ]

Download .torrent

Download

15 KB

Status: checked
Completed: 16 times
Size: 743 MB
terms.php

#1

10-Dec-2017 22:01

[Profile]  [PM] 
Display posts:    

You cannot post new topics in this forum
You cannot reply to topics in this forum
You cannot edit your posts in this forum
You cannot delete your posts in this forum
You cannot vote in polls in this forum
You cannot attach files in this forum
You can download files in this forum
User agreement
For copyright holders
Advertise on this site

Скачайте на халяву через торрент на трекере erzsebet.pl

!ATTENTION!
The site does not give electronic versions of products, and is engaged only in a collecting and cataloguing of the references sent and published at a forum by our readers. If you are the legal owner of any submitted material and do not wish that the reference to it was in our catalogue, contact us and we shall immediately remove her. Files for an exchange on tracker are given by users of a site, and the administration does not bear the responsibility for their maintenance. The request to not fill in the files protected by copyrights, and also files of the illegal maintenance!