Приключения няни / Adventures in Babysitting (Крис Коламбус / Chris Columbus) [1987, США, комедия, TVRip] [Fullscreen] Dub

DL-List and Torrent activity
Size:  2.86 GB   |    Registered:  2 years 10 months   |    Completed:  16 times
Seeders:  2   Leechers:  1   Show peers in full details
 
   
 
 

Max Levien ®

Longevity:
2 years 10 months
Posts:
20374

[Quote] 

Приключения няни / Adventures in Babysitting / Fullscreen
Страна: США
Жанр: комедия
Год выпуска: 1987
Продолжительность: 01:37:42
Перевод: Профессиональный (дублированный) Творческая группа Союза работников дубляжа по заказу российского телевидения
Субтитры: нет
Оригинальная аудиодорожка: нет
Режиссер: Крис Коламбус / Chris Columbus
В ролях: Элизабет Шу, Майа Брутон, Кит Куган, Энтони Рэпп, Кэлвин Левелс, Винсент Д’Онофрио, Пенелопа Энн Миллер, Джордж Ньюберн...
Описание: Девушка по имени Крис Паркер даже не подозревала о том, что ей придется стать няней. Но пережив ссору со своим другом, Крис решила хоть как-то отвлечься и заодно заработать.
В первый же вечер, вооружившись журналами мод, записной книжкой и грудой косметики, она приготовилась поскучать. Но то, что произошло дальше с няней и ее тремя подопечными, не поддается описанию. Во всяком случае, скучно им не было.
Доп. информация: Оцифровка VHS из собственной коллекции.
К сожалению картинка очень тёмная (спасибо РТР), а так как всё действие происходит ночью, то практически ничего и не видно.
Зато Fullscreen.
Сэмпл: http://sendfile.su/1299325
Качество видео: TVRip-AVC
Формат видео: MP4
Видео: AVC, 720х578, 5:4, 50,000 кадров/сек, 4000 Кбит/сек
Аудио: AAC, 48,0 КГц, 192 Кбит/сек, 2 канала, Front: L R

MediaInfo

Общее
Полное имя : K:\torrents\Adventures in Babysitting\Adventures in Babysitting.mp4
Формат : MPEG-4
Профиль формата : Base Media
Идентификатор кодека : isom (isom)
Размер файла : 2,86 Гбайт
Продолжительность : 1 ч. 37 м.
Режим общего битрейта : Переменный
Общий поток : 4195 Кбит/сек
Дата кодирования : UTC 2017-01-14 13:20:17
Дата пометки : UTC 2017-01-14 13:20:17
Видео
Идентификатор : 2
Формат : AVC
Формат/Информация : Advanced Video Codec
Профиль формата : [email protected]
Параметр CABAC формата : Нет
Параметр ReFrames формата : 1 кадр
Параметр GOP формата : M=1, N=100
Идентификатор кодека : avc1
Идентификатор кодека/Информация : Advanced Video Coding
Продолжительность : 1 ч. 37 м.
Битрейт : 4000 Кбит/сек
Максимальный битрейт : 4335 Кбит/сек
Ширина : 720 пикселей
Высота : 576 пикселей
Соотношение сторон : 5:4
Режим частоты кадров : Постоянный
Частота кадров : 50,000 кадров/сек
Цветовое пространство : YUV
Субдискретизация насыщенности : 4:2:0
Битовая глубина : 8 бит
Тип развёртки : Прогрессивная
Бит/(Пиксели*Кадры) : 0.193
Размер потока : 2,73 Гбайт (95%)
Дата пометки : UTC 2017-01-14 13:23:56
Аудио
Идентификатор : 1
Формат : AAC
Формат/Информация : Advanced Audio Codec
Профиль формата : LC
Идентификатор кодека : 40
Продолжительность : 1 ч. 37 м.
Вид битрейта : Переменный
Битрейт : 192 Кбит/сек
Максимальный битрейт : 195 Кбит/сек
Каналы : 2 канала
Расположение каналов : Front: L R
Частота : 48,0 КГц
Частота кадров : 46,875 кадров/сек (1024 spf)
Метод сжатия : С потерями
Размер потока : 132 Мбайт (5%)
Default : Да
Alternate group : 1
Дата пометки : UTC 2017-01-14 13:23:56

Скриншот c названием фильма

If your ratio falls below 0.3, you will not be able to download Torrents! More about the rating.

[erzsebet.pl].t48953.torrent
Torrent: Registered   [ 2017-12-10 22:03 ]

Download .torrent

Download

15 KB

Status: checked
Completed: 16 times
Size: 2.86 GB
terms.php

#1

10-Dec-2017 22:01

[Profile]  [PM] 
Display posts:    

You cannot post new topics in this forum
You cannot reply to topics in this forum
You cannot edit your posts in this forum
You cannot delete your posts in this forum
You cannot vote in polls in this forum
You cannot attach files in this forum
You can download files in this forum
User agreement
For copyright holders
Advertise on this site

Скачайте на халяву через торрент на трекере erzsebet.pl

!ATTENTION!
The site does not give electronic versions of products, and is engaged only in a collecting and cataloguing of the references sent and published at a forum by our readers. If you are the legal owner of any submitted material and do not wish that the reference to it was in our catalogue, contact us and we shall immediately remove her. Files for an exchange on tracker are given by users of a site, and the administration does not bear the responsibility for their maintenance. The request to not fill in the files protected by copyrights, and also files of the illegal maintenance!