Даже ангелы бывают жестоки / Anche Gli Angeli Tirano Di Destro (Энцо Барбони / Enzo Barboni) [1974, Италия, Комедия, криминал, DVDRip] VO (Яковлев)

DL-List and Torrent activity
Size:  745 MB   |    Registered:  2 years 10 months   |    Completed:  16 times
Seeders:  3  
 
   
 
 

Max Levien ®

Longevity:
2 years 10 months
Posts:
20374

[Quote] 

Даже ангелы бывают жестоки / Anche Gli Angeli Tirano Di Destro
Страна: Италия
Жанр: Комедия, криминал
Год выпуска: 1974
Продолжительность: 01:49:53
Перевод: Одноголосый закадровый Алексей Яковлев
Субтитры: нет
Режиссер: Энцо Барбони / Enzo Barboni
В ролях: Джулиано Джемма, Рики Бруч, Лаура Бекерелли, Фортунато Арена, Карла Манчини, Паоло Зилли, Доминик Барто, Риккардо Пиццути, Джузеппе Кастеллано, Эдоардо Файета
Описание: Санни, молодой пройдоха без гроша в кармане, мечтает прославиться и стать большим гангстером. И тут судьба подкидывает ему шанс. В руки Санни попадают поддельные паспорта, предназначенные для побега из тюрьмы известного бандита Джо Тигра и его людей. Представив случай как свою заслугу, Санни получает в награду контроль над одной из улиц Нью-Йорка. Как бонус, на улице располагается боксерский зал, но вот незадача, там еще есть церковь с очень непростым священником.
Доп. информация: Исходник DVD-9 (СПАСИБО! Al12)
Сэмпл: http://multi-up.com/960212
Качество видео: DVDRip
Формат видео: AVI
Видео: XviD build 50, 656x368 (1.78:1), 25 fps, 810 kbps avg
Аудио: MPEG Layer 3, 48 kHz, 2/0 (L,R) ch, 128.00 kbps avg

MediaInfo

General
Complete name : D:\Dazhe.angeli.bivaiyt.zhestoki.1974.DVDRip-Dego.avi
Format : AVI
Format/Info : Audio Video Interleave
File size : 745 MiB
Duration : 1h 49mn
Overall bit rate : 948 Kbps
Writing application : VirtualDubMod 1.5.10.2 (build 2540/release)
Writing library : VirtualDubMod build 2540/release
Video
ID : 0
Format : MPEG-4 Visual
Format profile : [email protected]
Format settings, BVOP : Yes
Format settings, QPel : No
Format settings, GMC : No warppoints
Format settings, Matrix : Default (H.263)
Codec ID : XVID
Codec ID/Hint : XviD
Duration : 1h 49mn
Bit rate : 810 Kbps
Width : 656 pixels
Height : 368 pixels
Display aspect ratio : 16/9
Frame rate : 25.000 fps
Resolution : 24 bits
Colorimetry : 4:2:0
Scan type : Progressive
Bits/(Pixel*Frame) : 0.134
Stream size : 637 MiB (85%)
Writing library : XviD 1.2.1 (UTC 2008-12-04)
Audio
ID : 1
Format : MPEG Audio
Format version : Version 1
Format profile : Layer 3
Codec ID : 55
Codec ID/Hint : MP3
Duration : 1h 49mn
Bit rate mode : Constant
Bit rate : 128 Kbps
Channel(s) : 2 channels
Sampling rate : 48.0 KHz
Resolution : 16 bits
Stream size : 101 MiB (14%)
Alignment : Aligned on interleaves
Interleave, duration : 40 ms (1.00 video frame)
Interleave, preload duration : 504 ms
Writing library : LAME3.98r
Encoding settings : -m s -V 4 -q 2 -lowpass 17 -b 128

Скриншоты

If your ratio falls below 0.3, you will not be able to download Torrents! More about the rating.

[erzsebet.pl].t48958.torrent
Torrent: Registered   [ 2017-12-10 22:03 ]

Download .torrent

Download

15 KB

Status: checked
Completed: 16 times
Size: 745 MB
terms.php

#1

10-Dec-2017 22:01

[Profile]  [PM] 
Display posts:    

You cannot post new topics in this forum
You cannot reply to topics in this forum
You cannot edit your posts in this forum
You cannot delete your posts in this forum
You cannot vote in polls in this forum
You cannot attach files in this forum
You can download files in this forum
User agreement
For copyright holders
Advertise on this site

Скачайте на халяву через торрент на трекере erzsebet.pl

!ATTENTION!
The site does not give electronic versions of products, and is engaged only in a collecting and cataloguing of the references sent and published at a forum by our readers. If you are the legal owner of any submitted material and do not wish that the reference to it was in our catalogue, contact us and we shall immediately remove her. Files for an exchange on tracker are given by users of a site, and the administration does not bear the responsibility for their maintenance. The request to not fill in the files protected by copyrights, and also files of the illegal maintenance!