Большой риск для одиночки / Troppo rischio per un uomo solo (Лучиано Эрколи / Luciano Ercoli) [1973, Италия, боевик, VHSRip] VO (Horror Maker) + Sub Rus (karlivanovich) + Original Ita

DL-List and Torrent activity
Size:  1.43 GB   |    Registered:  2 years 10 months   |    Completed:  16 times
Seeders:  2  
 
   
 
 

Max Levien ®

Longevity:
2 years 10 months
Posts:
20374

[Quote] 

Большой риск для одиночки / Troppo rischio per un uomo solo Страна: Италия
Жанр: боевик
Год выпуска: 1973
Продолжительность: 01:43:39
Перевод: Субтитры karlivanovich
Озвучивание: Одноголосый закадровый Horror Maker
Субтитры: русские
Оригинальная аудиодорожка: итальянский
Режиссер: Лучиано Эрколи / Лучиано Эрколи
В ролях: Джулиано Джемма, Ниевес Наварро, Венантино Венантини, Майкл Форест, Стелла Карначина, Марио Эрпикини, Глауко Онорато, Джанкарло Дзанетти, Карло Джентили, Изабель Маршалл
Описание: Известный автогонщик Руди Патти (Джулиано Джемма) обвинен в убийстве своей любовницы, которое он не совершал, и заключен под стражу. С помощью неизвестных людей ему удается бежать и Руди начинает поиски настоящего убийцы.
Сэмпл: http://multi-up.com/1105038
Качество видео: VHSRip
Формат видео: AVI
Видео: 672x304 (2.21:1), 25 fps, XviD MPEG-4 ~1580 kbps avg, 0.31 bit/pixel
Аудио 1: 48 kHz, AC3 Dolby Digital, 2/0 (L,R) ch, ~192 kbps русский
Аудио 2: 48 kHz, AC3 Dolby Digital, 2/0 (L,R) ch, ~192 kbps итальянский
Формат субтитров: softsub (SRT)
Релиз: и
ВНИМАНИЕ: в связи с добавлением озвучки, торрент-файл перезалит 09.06.2016 в 12:00 по Мск.

MediaInfo

Формат : AVI
Формат/Информация : Audio Video Interleave
Размер файла : 1,43 Гбайт
Продолжительность : 1 ч. 43 м.
Общий поток : 1980 Кбит/сек
Программа кодирования : VirtualDubMod 1.5.10.2 (build 2540/release)
Библиотека кодирования : VirtualDubMod build 2540/release
Видео
Идентификатор : 0
Формат : MPEG-4 Visual
Профиль формата : Advanced [email protected]
Параметр BVOP формата : 2
Параметр QPel формата : Нет
Параметр GMC формата : Без точки перехода
Параметр матрицы формата : Default (MPEG)
Идентификатор кодека : XVID
Идентификатор кодека/Подсказка : XviD
Продолжительность : 1 ч. 43 м.
Битрейт : 1581 Кбит/сек
Ширина : 672 пикселя
Высота : 304 пикселя
Соотношение сторон : 2,2:1
Частота кадров : 25,000 кадров/сек
Цветовое пространство : YUV
Субдискретизация насыщенности : 4:2:0
Битовая глубина : 8 бит
Тип развёртки : Прогрессивная
Метод сжатия : С потерями
Бит/(Пиксели*Кадры) : 0.310
Размер потока : 1,14 Гбайт (80%)
Библиотека кодирования : XviD 64
Аудио #1
Идентификатор : 1
Формат : AC-3
Формат/Информация : Audio Coding 3
Расширение режима : CM (complete main)
Параметр Endianness формата : Big
Идентификатор кодека : 2000
Продолжительность : 1 ч. 43 м.
Вид битрейта : Постоянный
Битрейт : 192 Кбит/сек
Каналы : 2 канала
Расположение каналов : Front: L R
Частота : 48,0 КГц
Частота кадров : 31,250 кадров/сек (1536 spf)
Метод сжатия : С потерями
Размер потока : 142 Мбайт (10%)
Выравнивание : Разделение по промежуткам
Продолжительность промежутка : 40 мс. (1,00 видеокадр)
Время предзагрузки промежутка : 500 мс.
Аудио #2
Идентификатор : 2
Формат : AC-3
Формат/Информация : Audio Coding 3
Расширение режима : CM (complete main)
Параметр Endianness формата : Big
Идентификатор кодека : 2000
Продолжительность : 1 ч. 43 м.
Вид битрейта : Постоянный
Битрейт : 192 Кбит/сек
Каналы : 2 канала
Расположение каналов : Front: L R
Частота : 48,0 КГц
Частота кадров : 31,250 кадров/сек (1536 spf)
Метод сжатия : С потерями
Размер потока : 142 Мбайт (10%)
Выравнивание : Разделение по промежуткам
Продолжительность промежутка : 40 мс. (1,00 видеокадр)
Время предзагрузки промежутка : 500 мс.

Скриншот c названием фильма

Пример субтитров

7
00:00:54,318 --> 00:00:58,801
Руди, 10 минут до старта, остались
кое-какие маленькие настройки.
8
00:00:59,735 --> 00:01:01,735
Всё в норме.
9
00:01:11,197 --> 00:01:14,094
Я так и глаза могу лишиться.
10
00:01:14,253 --> 00:01:19,322
- Что там ещё?
- Пара проблем. Не смог устранить течь в коробке.
11
00:01:19,482 --> 00:01:22,349
- Сколько работать будет?
- Меня не спрашивай.
12
00:01:22,578 --> 00:01:27,028
- Что мне в тебе нравится, так это то, что ты мне всегда помогаешь.
- Ты мне, я тебе.
13
00:01:27,195 --> 00:01:30,729
Если ты не будешь давать такую бешеную
нагрузку, то масло течь почти не будет.
14
00:01:30,916 --> 00:01:35,158
Раз ты такой великий механик, то
расскажи мне ещё про тормоза.
15
00:01:35,305 --> 00:01:41,516
Работают, не волнуйся, но будешь резко
тормозить, сломаются. Так что резко не тормози.
16
00:01:41,696 --> 00:01:44,457
- Сначала сломаются передние или задние?
- Откуда я знаю?
17
00:01:44,608 --> 00:01:48,223
Если что-то почувствуешь, уходи
на обочину, потому что иначе...
18
00:01:48,458 --> 00:01:50,966
- Значит, волноваться мне не следует?
- Можно автограф?
19
00:01:51,701 --> 00:01:54,704
Напишите, "с любовью".
20
00:01:54,869 --> 00:01:57,701
Можно вас сфотографировать?
21
00:01:58,190 --> 00:02:00,190
И вот вам.
22
00:02:05,341 --> 00:02:09,644
В Германии мы читали, что он самый популярный
пилот. Если он такой же симпатичный как на фото...
23
00:02:09,745 --> 00:02:12,572
Я хорошо его знаю, он даже лучше чем на фото.
24
00:02:12,720 --> 00:02:14,441
- Вот и он. Привет, Руди.
- Привет.
25
00:02:14,511 --> 00:02:16,897
Хочу представить тебе моих
подруг, Хельга и Ингрид.
26
00:02:17,012 --> 00:02:20,741
Очень приятно.
27
00:02:21,254 --> 00:02:24,823
Ты кажется просто одержим гонками, Браунер,
я тебя вижу на каждой своей гонке.
Огромное спасибо karlivanovichза перевод фильма с английского на слух, Horror Maker за озвучку и Shangu, oxyman, arwin, sdv7, Aleks Punk (Алексею Проскурякову) за организацию озвучки!

If your ratio falls below 0.3, you will not be able to download Torrents! More about the rating.

[erzsebet.pl].t48961.torrent
Torrent: Registered   [ 2017-12-10 22:03 ]

Download .torrent

Download

15 KB

Status: checked
Completed: 16 times
Size: 1.43 GB
terms.php

#1

10-Dec-2017 22:01

[Profile]  [PM] 
Display posts:    

You cannot post new topics in this forum
You cannot reply to topics in this forum
You cannot edit your posts in this forum
You cannot delete your posts in this forum
You cannot vote in polls in this forum
You cannot attach files in this forum
You can download files in this forum
User agreement
For copyright holders
Advertise on this site

Скачайте на халяву через торрент на трекере erzsebet.pl

!ATTENTION!
The site does not give electronic versions of products, and is engaged only in a collecting and cataloguing of the references sent and published at a forum by our readers. If you are the legal owner of any submitted material and do not wish that the reference to it was in our catalogue, contact us and we shall immediately remove her. Files for an exchange on tracker are given by users of a site, and the administration does not bear the responsibility for their maintenance. The request to not fill in the files protected by copyrights, and also files of the illegal maintenance!