Морячок Попай / Французский Связной 3 / Popeye Doyle / Limited Endurance / French Connection III (Питер Левин / Peter Levin) [1986, США, триллер, драма, криминал, детектив, VHSRip] DVO (НТВ) + Original Eng

DL-List and Torrent activity
Size:  1.41 GB   |    Registered:  2 years 10 months   |    Completed:  16 times
Seeders:  2  
 
   
 
 

Max Levien ®

Longevity:
2 years 10 months
Posts:
20374

[Quote] 

Морячок Попай / Французский Связной 3 / Popeye Doyle / Limited Endurance / French Connection III
Год выпуска: 1986
Страна: США
Жанр: триллер, драма, криминал, детектив
Продолжительность: 01:34:59
Перевод: Профессиональный (двухголосый закадровый) - НТВ
Субтитры: нет
Оригинальная аудиодорожка: английский
Режиссер: Питер Левин / Peter Levin
В ролях: Эд О'Нил (Popeye Doyle), Мэттью Лоранс (Tony Parese), Джеймс Хэнди (Lieutenant Gregory Paulus), Кэнди Кларк (Corinne Evans), Джордж Де Ла Пена (Itan Kellerman / The Shadow), Одри Лэндерс (Jill Anneyard), Николас Кади (Auram Bardas / The Weasel), Элиас Зэроу (Fahoud Nazzim), Ричард Монетт (Patrick Henley), Дж.К. Симмонс (Patrolman in Park)-Мировая премьера: 7 сентября 1986-Описание: Морячок Попай (Эд О'Нил) расследует на первый взгляд простой случай передозировки наркотиков, однако вовлекается в интригу международного масштаба. На его пути повсюду появляются агенты Моссад и разнообразные прочие дипломатические фигуры. Передозировка оказывается убийством, в которое вовлечены различные влиятельные персоны..-Исходник видео: из СГ.-Огромная благодарность:
Sp1end1d - собственная запись перевода с телеканала НТВ в конце 90-х годов через видеомагнитофон и оцифровка с видеокассеты.
JUSTKANT - синхронизация перевода.-Данный фильм вместе с русским переводом появляется впервые.
На русский язык фильм озвучен телекомпанией НТВ.
Текст читают Андрей Ярославцев и Марина Тарасова.-
Рейтинг

MPAA: R - Лицам до 17 лет обязательно присутствие взрослого.-Качество видео: VHSRip
Формат видео: AVI -> //SAMPLE//
Видео: XviD, 704x528 (4:3), 25.000 fps, 1725 kbps avg
Аудио:
1 - 48 khz, AC3 Dolby Digital, 2/0 (L,R) ch, ~192 kbps [НТВ] VHSRip
2 - 48 khz, AC3 Dolby Digital, 2/0 (L,R) ch, ~192 kbps [Английский]-Французский Связной / The French Connection / 1971 / BDRip / 01:43:54 - DVO (НТВ) + DVO (Премьер Видео Фильм) + Original Eng
http://erzsebet.org/forum/viewtopic.php?t=5134700
Французский Связной 2 / French Connection II / 1975 / BDRip / 01:59:18 - DVO (НТВ) + DVO (Премьер Видео Фильм)
http://erzsebet.org/forum/viewtopic.php?t=5134810

MediaInfo

General
Complete name : I:\Торрент Файлы\Будущие Релизы на Трекере\1.35 - 1.46 и более гб\Морячок Попай (НТВ + Оригинал).avi
Format : AVI
Format/Info : Audio Video Interleave
File size : 1.41 GiB
Duration : 1h 34mn
Overall bit rate : 2 123 Kbps
Writing application : VirtualDubMod 1.5.10.3 | www.virtualdub-fr.org || (build 2550/release)
Writing library : VirtualDubMod build 2550/release
Video
ID : 0
Format : MPEG-4 Visual
Format profile : Advanced [email protected]
Format settings, BVOP : 1
Format settings, QPel : No
Format settings, GMC : No warppoints
Format settings, Matrix : Default (MPEG)
Codec ID : XVID
Codec ID/Hint : XviD
Duration : 1h 34mn
Bit rate : 1 725 Kbps
Width : 704 pixels
Height : 528 pixels
Display aspect ratio : 4:3
Frame rate : 25.000 fps
Color space : YUV
Chroma subsampling : 4:2:0
Bit depth : 8 bits
Scan type : Progressive
Compression mode : Lossy
Bits/(Pixel*Frame) : 0.186
Stream size : 1.14 GiB (81%)
Writing library : XviD 1.2.1 (UTC 2008-12-04)
Audio #1
ID : 1
Format : AC-3
Format/Info : Audio Coding 3
Mode extension : CM (complete main)
Format settings, Endianness : Big
Codec ID : 2000
Duration : 1h 34mn
Bit rate mode : Constant
Bit rate : 192 Kbps
Channel(s) : 2 channels
Channel positions : Front: L R
Sampling rate : 48.0 KHz
Frame rate : 31.250 fps (1536 spf)
Compression mode : Lossy
Stream size : 130 MiB (9%)
Alignment : Split accross interleaves
Interleave, duration : 40 ms (1.00 video frame)
Interleave, preload duratio : 500 ms
Audio #2
ID : 2
Format : AC-3
Format/Info : Audio Coding 3
Mode extension : CM (complete main)
Format settings, Endianness : Big
Codec ID : 2000
Duration : 1h 34mn
Bit rate mode : Constant
Bit rate : 192 Kbps
Channel(s) : 2 channels
Channel positions : Front: L R
Sampling rate : 48.0 KHz
Frame rate : 31.250 fps (1536 spf)
Compression mode : Lossy
Stream size : 130 MiB (9%)
Alignment : Split accross interleaves
Interleave, duration : 40 ms (1.00 video frame)
Interleave, preload duratio : 500 ms

Скриншот c названием фильма

Скриншоты

If your ratio falls below 0.3, you will not be able to download Torrents! More about the rating.

[erzsebet.pl].t48969.torrent
Torrent: Registered   [ 2017-12-10 22:03 ]

Download .torrent

Download

15 KB

Status: checked
Completed: 16 times
Size: 1.41 GB
terms.php

#1

10-Dec-2017 22:01

[Profile]  [PM] 
Display posts:    

You cannot post new topics in this forum
You cannot reply to topics in this forum
You cannot edit your posts in this forum
You cannot delete your posts in this forum
You cannot vote in polls in this forum
You cannot attach files in this forum
You can download files in this forum
User agreement
For copyright holders
Advertise on this site

Скачайте на халяву через торрент на трекере erzsebet.pl

!ATTENTION!
The site does not give electronic versions of products, and is engaged only in a collecting and cataloguing of the references sent and published at a forum by our readers. If you are the legal owner of any submitted material and do not wish that the reference to it was in our catalogue, contact us and we shall immediately remove her. Files for an exchange on tracker are given by users of a site, and the administration does not bear the responsibility for their maintenance. The request to not fill in the files protected by copyrights, and also files of the illegal maintenance!