Моя мачеха - инопланетянка / My Stepmother Is an Alien (Ричард Бенджамин / Richard Benjamin) [1988, США, фантастика, комедия, HDTVRip] AVO (Василий Горчаков)

DL-List and Torrent activity
Size:  746 MB   |    Registered:  2 years 10 months   |    Completed:  16 times
Seeders:  3  
 
   
 
 

Max Levien ®

Longevity:
2 years 10 months
Posts:
20374

[Quote] 

Моя мачеха - инопланетянка / My Stepmother Is an Alien
Страна: США
Жанр: Фантастика, комедия
Год выпуска: 1988
Продолжительность: 01:43:32
Перевод: Авторский (одноголосый закадровый) Василий Горчаков
Субтитры: нет
Режиссер: Ричард Бенджамин / Richard Benjamin
В ролях: Дэн Эйкройд, Ким Бейсингер, Джон Ловиц, Элисон Хэннигэн, Джозеф Маэр, Сет Грин, Энн Прентисс, Уэсли Манн, Тони Джей, Питер Бромилов, Нина Хендерсон, Гарри Ширер, Адриан Спаркс, Джульетт Льюис, Карен Абер, Эми Киркпатрик, Сьюзи Плэксон, Роберт Бенедетти, Джим Дуган, Джей МакКэслин, Джим Джекман, Кевин МакДермотт, Робин Манделл, Софи Бауэн, Ши Бауэн, Габи, Джина Рэймонд, Максин, Джеймс Л. Эдвардс, Эрл Боэн, Мишель Роджерс
Описание: Стив Миллс – обыкновенный мужчина, который работает физиком и находится на вершине своих исследовательских разработок. Однажды, он замечает невероятно красивую женщину, одетую в модное платье красного цвета. Эту красотку зовут Селеста. Она – инопланетянка. Селеста прибыла на нашу планету с одной конкретной целью – соблазнить гения-физика и разузнать его тайны. Именно в работах Стива находится тайный ключ к спасению целой планеты Селесты. Сексуальная блондинка удачно манипулирует мужчиной, оказывается у него дома, вызывает симпатию у его собаки, но никак не может создать путь к взаимопониманию с дочерью Стива. Девочка подросток постоянно намекает папе о странностях Селесты. Но, очарованный физик ничего не может поделать со своими чувствами. Вместе с Селестой он проводит незабываемые дни, и такие же незабываемые ночи. Он не собирается отпускать эту женщину к какому-то другому мужчине, поэтому, решается сделать предложение руки и сердца. Моя мачеха – инопланетянка – комедийная фантазия, которая поднимет настроение всей семье...
Сэмпл: http://multi-up.com/1124360
Качество видео: HDTVRip (Исходник)
Формат видео: AVI
Видео: XviD, 688x384, (16:9), 25,000 fps, 806 Кбит/с
Аудио: Русский (АС3, 2 ch (Front: L R), 48,0 KHz, 192 Kbps)

MediaInfo

Общее
Полное имя : F:\Видеофильмы\В и д е о\Моя мачеха - инопланетянка (фантастика 1988 год).avi
Формат : AVI
Формат/Информация : Audio Video Interleave
Размер файла : 746 Мбайт
Продолжительность : 1 ч. 43 м.
Общий поток : 1008 Кбит/сек
Программа кодирования : VirtualDubMod 1.5.10.3 | www.virtualdub-fr.org || (build 2550/release)
Библиотека кодирования : VirtualDubMod build 2550/release
Видео
Идентификатор : 0
Формат : MPEG-4 Visual
Профиль формата : Advanced [email protected]
Параметр BVOP формата : 2
Параметр QPel формата : Нет
Параметр GMC формата : Без точки перехода
Параметр матрицы формата : Выборочная
Идентификатор кодека : XVID
Идентификатор кодека/Подсказка : XviD
Продолжительность : 1 ч. 43 м.
Битрейт : 806 Кбит/сек
Ширина : 688 пикселей
Высота : 384 пикселя
Соотношение сторон : 16:9
Частота кадров : 25,000 кадров/сек
Цветовое пространство : YUV
Субдискретизация насыщенности : 4:2:0
Битовая глубина : 8 бит
Тип развёртки : Прогрессивная
Метод сжатия : С потерями
Бит/(Пиксели*Кадры) : 0.122
Размер потока : 597 Мбайт (80%)
Библиотека кодирования : XviD 1.2.1 (UTC 2008-12-04)
Аудио
Идентификатор : 1
Формат : AC-3
Формат/Информация : Audio Coding 3
Расширение режима : CM (complete main)
Параметр Endianness формата : Big
Идентификатор кодека : 2000
Продолжительность : 1 ч. 43 м.
Вид битрейта : Постоянный
Битрейт : 192 Кбит/сек
Каналы : 2 канала
Расположение каналов : Front: L R
Частота : 48,0 КГц
Частота кадров : 31,250 кадров/сек (1536 spf)
Метод сжатия : С потерями
Размер потока : 142 Мбайт (19%)
Выравнивание : Разделение по промежуткам
Продолжительность промежутка : 40 мс. (1,00 видеокадр)
Время предзагрузки промежутка : 500 мс.

Скриншот c названием фильма

Скриншоты

If your ratio falls below 0.3, you will not be able to download Torrents! More about the rating.

[erzsebet.pl].t48971.torrent
Torrent: Registered   [ 2017-12-10 22:03 ]

Download .torrent

Download

15 KB

Status: checked
Completed: 16 times
Size: 746 MB
terms.php

#1

10-Dec-2017 22:01

[Profile]  [PM] 
Display posts:    

You cannot post new topics in this forum
You cannot reply to topics in this forum
You cannot edit your posts in this forum
You cannot delete your posts in this forum
You cannot vote in polls in this forum
You cannot attach files in this forum
You can download files in this forum
User agreement
For copyright holders
Advertise on this site

Скачайте на халяву через торрент на трекере erzsebet.pl

!ATTENTION!
The site does not give electronic versions of products, and is engaged only in a collecting and cataloguing of the references sent and published at a forum by our readers. If you are the legal owner of any submitted material and do not wish that the reference to it was in our catalogue, contact us and we shall immediately remove her. Files for an exchange on tracker are given by users of a site, and the administration does not bear the responsibility for their maintenance. The request to not fill in the files protected by copyrights, and also files of the illegal maintenance!