Мистер судьба / Повороты судьбы / Мистер Дестини / Mr. Destiny (Джеймс Орр / James Orr) [1990, США, комедия, приключения, WEB-DLRip] AVO (Алексей Михалев)

DL-List and Torrent activity
Size:  747 MB   |    Registered:  2 years 10 months   |    Completed:  16 times
Seeders:  4  
 
   
 
 

Max Levien ®

Longevity:
2 years 10 months
Posts:
20374

[Quote] 

Мистер судьба / Повороты судьбы / Мистер Дестини / Mr. Destiny
Страна: США
Жанр: комедия, приключения
Год выпуска: 1990
Продолжительность: 01:50:26
Перевод: Авторский (одноголосый закадровый) Алексей Михалев
Субтитры: нет
Режиссер: Джеймс Орр / James Orr
В ролях: Джеймс Белуши, Линда Хэмилтон, Майкл Кейн, Джон Ловиц, Харт Бочнер, Билл МакКатчен, Рене Руссо, Джей О. Сандерс, Мори Чайкин
Описание: Представьте, что в один прекрасный день сбываются все ваши мечты. Именно это и случилось со скромным служащим, когда он столкнулся с таинственным незнакомцем. Мгновенно тоскливая жизнь Лэрри превращается в сказку - огромный особняк, прекрасная жена, обалденные машины! Но довольно-таки скоро прекрасная житуха набивает оскомину, а вернуться обратно, в привычный мир, совсем не просто....
Сэмпл: https://yadi.sk/i/RJyS59Xg3HWYfg
Качество видео: WEB-DLRip (Исходник Mr. Destiny.mkv)
Формат видео: AVI
Видео: XviD, 656x352, (1,85:1), 23,976 fps, 808 Кбит/с, 8 бит
Аудио: Русский (МР3, 2 ch, 48,0 KHz, 128 Kbps)

MediaInfo

Общее
Полное имя : F:\Видеофильмы\В и д е о\Мистер судьба (комедия, приключения 1990 год).avi
Формат : AVI
Формат/Информация : Audio Video Interleave
Размер файла : 747 Мбайт
Продолжительность : 1 ч. 50 м.
Общий поток : 945 Кбит/сек
Программа кодирования : VirtualDubMod 1.5.10.3 | www.virtualdub-fr.org || (build 2550/release)
Библиотека кодирования : VirtualDubMod build 2550/release
Видео
Идентификатор : 0
Формат : MPEG-4 Visual
Профиль формата : Advanced [email protected]
Параметр BVOP формата : 2
Параметр QPel формата : Нет
Параметр GMC формата : Без точки перехода
Параметр матрицы формата : Выборочная
Идентификатор кодека : XVID
Идентификатор кодека/Подсказка : XviD
Продолжительность : 1 ч. 50 м.
Битрейт : 808 Кбит/сек
Ширина : 656 пикселей
Высота : 352 пикселя
Соотношение сторон : 1,85:1
Частота кадров : 23,976 (23976/1000) кадра/сек
Цветовое пространство : YUV
Субдискретизация насыщенности : 4:2:0
Битовая глубина : 8 бит
Тип развёртки : Прогрессивная
Метод сжатия : С потерями
Бит/(Пиксели*Кадры) : 0.146
Размер потока : 638 Мбайт (85%)
Библиотека кодирования : XviD 73
Аудио
Идентификатор : 1
Формат : MPEG Audio
Версия формата : Version 1
Профиль формата : Layer 3
Идентификатор кодека : 55
Идентификатор кодека/Подсказка : MP3
Продолжительность : 1 ч. 50 м.
Вид битрейта : Постоянный
Битрейт : 128 Кбит/сек
Каналы : 2 канала
Частота : 48,0 КГц
Метод сжатия : С потерями
Размер потока : 101 Мбайт (14%)
Выравнивание : Соединение по промежуткам
Продолжительность промежутка : 42 мс. (1,00 видеокадр)
Время предзагрузки промежутка : 504 мс.
Библиотека кодирования : LAME3.99r
Настройки программы : -m s -V 4 -q 2 -lowpass 17 -b 128

Скриншот c названием фильма

Скриншоты

If your ratio falls below 0.3, you will not be able to download Torrents! More about the rating.

[erzsebet.pl].t48973.torrent
Torrent: Registered   [ 2017-12-10 22:03 ]

Download .torrent

Download

15 KB

Status: checked
Completed: 16 times
Size: 747 MB
terms.php

#1

10-Dec-2017 22:01

[Profile]  [PM] 
Display posts:    

You cannot post new topics in this forum
You cannot reply to topics in this forum
You cannot edit your posts in this forum
You cannot delete your posts in this forum
You cannot vote in polls in this forum
You cannot attach files in this forum
You can download files in this forum
User agreement
For copyright holders
Advertise on this site

Скачайте на халяву через торрент на трекере erzsebet.pl

!ATTENTION!
The site does not give electronic versions of products, and is engaged only in a collecting and cataloguing of the references sent and published at a forum by our readers. If you are the legal owner of any submitted material and do not wish that the reference to it was in our catalogue, contact us and we shall immediately remove her. Files for an exchange on tracker are given by users of a site, and the administration does not bear the responsibility for their maintenance. The request to not fill in the files protected by copyrights, and also files of the illegal maintenance!