Тысяча и одна ночь удовольствий / Finalmente... le mille e una notte (Антонио Маргерити / Antonio Margheriti) [1972, Италия, комедия, DVDRip] Sub Rus (antoniolagrande) + Original Ita

DL-List and Torrent activity
Size:  937 MB   |    Registered:  2 years 10 months   |    Completed:  16 times
Seeders:  3  
 
   
 
 

Max Levien ®

Longevity:
2 years 10 months
Posts:
20374

[Quote] 

Тысяча и одна ночь удовольствий / Finalmente... le mille e una notte Страна: Италия
Жанр: комедия
Год выпуска: 1972
Продолжительность: 01:30:13
Перевод: Субтитры antoniolagrande
Субтитры: русские
Оригинальная аудиодорожка: итальянский
Режиссер: Антонио Маргерити / Antonio Margheriti
В ролях: Барбара Буше, Феми Бенусси, Барбара Мардзано, Эсмеральда Баррош, Пупо Де Люка, Гастоне Пескуччи, Альберто Атенари, Игнацио Леоне, Барбара Бетти, Энни Кэрол Эдел
Описание: Эротическая комедия по мотивам арабских сказок 1001 ночи. Аладдин и прекрасная принцесса, визирь и халиф, ковер-самолет и любовная магия, неверные жены и глупые мужья - все смешалось в этом веселом и красочном фильме.
Сэмпл: http://multi-up.com/1021244
Качество видео: DVDRip
Формат видео: AVI
Видео: 688x288 (2.39:1), 25 fps, XviD build 46 ~1313 kbps avg, 0.27 bit/pixel
Аудио: 48 kHz, AC3 Dolby Digital, 1/0 (C) ch, ~128 kbps
Формат субтитров: softsub (SRT)
Релиз:
16+

MediaInfo

Format : AVI
Format/Info : Audio Video Interleave
File size : 937 MiB
Duration : 1h 30mn
Overall bit rate : 1 451 Kbps
Writing application : VirtualDubMod 1.5.10.2 (build 2540/release)
Writing library : VirtualDub build 35491/release
Video
ID : 0
Format : MPEG-4 Visual
Format profile : Advanced [email protected]
Format settings, BVOP : 1
Format settings, QPel : No
Format settings, GMC : No warppoints
Format settings, Matrix : Default (MPEG)
Codec ID : XVID
Codec ID/Hint : XviD
Duration : 1h 30mn
Bit rate : 1 314 Kbps
Width : 688 pixels
Height : 288 pixels
Display aspect ratio : 2.40:1
Frame rate : 25.000 fps
Color space : YUV
Chroma subsampling : 4:2:0
Bit depth : 8 bits
Scan type : Progressive
Compression mode : Lossy
Bits/(Pixel*Frame) : 0.265
Stream size : 848 MiB (91%)
Writing library : XviD 1.1.2 (UTC 2006-11-01)
Audio
ID : 1
Format : AC-3
Format/Info : Audio Coding 3
Mode extension : CM (complete main)
Format settings, Endianness : Big
Codec ID : 2000
Duration : 1h 30mn
Bit rate mode : Constant
Bit rate : 128 Kbps
Channel(s) : 1 channel
Channel positions : Front: C
Sampling rate : 48.0 KHz
Bit depth : 16 bits
Compression mode : Lossy
Stream size : 82.6 MiB (9%)
Alignment : Aligned on interleaves
Interleave, duration : 40 ms (1.00 video frame)
Interleave, preload duration : 512 ms

Скриншот c названием фильма

Пример субтитров

17
00:04:45,219 --> 00:04:49,519
Что мы пообещали народу
в последний раз?
18
00:04:49,819 --> 00:04:53,319
Работу, справедливость
и дом для всех.
19
00:04:53,419 --> 00:04:54,819
Надо обещать больше.
20
00:04:54,921 --> 00:05:00,219
Сегодня пообещаем работу,
справедливость и два дома для всех.
21
00:05:05,119 --> 00:05:07,219
С каждым днём он весит всё больше.
22
00:05:11,719 --> 00:05:13,419
Наслаждайтесь!
23
00:05:20,719 --> 00:05:22,619
Но потом придётся вернуть.
24
00:05:22,719 --> 00:05:25,419
Довольно!
Возвращайте монеты.
25
00:05:25,719 --> 00:05:27,423
Грязные воры!
26
00:05:30,219 --> 00:05:32,524
Давайте, подбирайте всё!
27
00:05:40,819 --> 00:05:42,219
Ещё немного монет.
28
00:05:43,719 --> 00:05:45,619
Контролёр!
29
00:05:50,119 --> 00:05:53,819
Каждый раз всё меньше,
что за толпа воришек?
30
00:05:54,619 --> 00:05:56,219
Получат меня ещё разок.
31
00:06:03,319 --> 00:06:05,419
Опускайте! Медленно!
32
00:06:19,319 --> 00:06:22,819
- Пусть провидец будет с тобой.
- Он всегда со мной.
33
00:06:22,919 --> 00:06:24,219
Я пришёл с миром.
34
00:06:24,919 --> 00:06:28,620
Ты привёз мне сладкую рабыню,
как обещал?
35
00:06:32,719 --> 00:06:34,419
Подарок мира.
36
00:06:36,719 --> 00:06:38,819
Она станет главной.
37
00:07:13,519 --> 00:07:17,419
Не хочу показаться мнительным,
но сказочная Зумруд...
38
00:07:17,519 --> 00:07:20,422
Я не видел её лица...
Огромное спасибо antoniolagrandeза перевод фильма!

If your ratio falls below 0.3, you will not be able to download Torrents! More about the rating.

[erzsebet.pl].t48977.torrent
Torrent: Registered   [ 2017-12-10 22:03 ]

Download .torrent

Download

19 KB

Status: checked
Completed: 16 times
Size: 937 MB
terms.php

#1

10-Dec-2017 22:00

[Profile]  [PM] 
Display posts:    

You cannot post new topics in this forum
You cannot reply to topics in this forum
You cannot edit your posts in this forum
You cannot delete your posts in this forum
You cannot vote in polls in this forum
You cannot attach files in this forum
You can download files in this forum
User agreement
For copyright holders
Advertise on this site

Скачайте на халяву через торрент на трекере erzsebet.pl

!ATTENTION!
The site does not give electronic versions of products, and is engaged only in a collecting and cataloguing of the references sent and published at a forum by our readers. If you are the legal owner of any submitted material and do not wish that the reference to it was in our catalogue, contact us and we shall immediately remove her. Files for an exchange on tracker are given by users of a site, and the administration does not bear the responsibility for their maintenance. The request to not fill in the files protected by copyrights, and also files of the illegal maintenance!