Эдвард Руки-ножницы / Edward Scissorhands (Тим Бёртон / Tim Burton) [1990, США, фэнтези, мелодрама, драма, трагикомедия, VHSRip] [Fullscreen] MVO (Laser Video)

DL-List and Torrent activity
Size:  1.37 GB   |    Registered:  2 years 10 months   |    Completed:  16 times
Seeders:  2  
 
   
 
 

Max Levien ®

Longevity:
2 years 10 months
Posts:
20374

[Quote] 

Эдвард Руки-ножницы / Edward Scissorhands
«История о необычном человеке»

[Full Screen]

Страна: США
Жанр: фэнтези, мелодрама, драма, трагикомедия
Год выпуска: 1990
Продолжительность: 01:40:39
Перевод: Профессиональный (многоголосый закадровый) Laser Video
Субтитры: нет
Режиссер: Тим Бёртон / Tim Burton
В ролях: Джонни Депп, Энтони Майкл Холл, Вайнона Райдер, Дайэнн Уист, Кэти Бэйкер, Роберт Оливери, Кончата Феррелл, Кэролайн Аарон, Дик Энтони Уильямс, О-Лан Джонс, Винсент Прайс, Алан Аркин, Сьюзан Бломмаерт, Брайан Ларкин, Джон МакМэхон, Джина Галлахер, Аарон Ластиг, Алан Фадж, Стивен Брилл, Питер Палмер, Марк Маколэй, Бретт Райс, Тришиа Ллойд, Рекс Фокс, Шерри Фергюсон, Джеки Карсон, Кэти Флеминг, Майкл Браун, Гэри Кларк
Описание: Яркая, очень личностная сказка от режиссера "Жучиного сока" и "Бэтмэна". Эдвард (Депп) - создание изобретателя (Винсент Прайс), который умер перед завершением своей работы, оставив "дитя" с заостренными металлическими "ножницами" вместо рук. Когда леди Пег (Уист) вызывает в один прекрасный день Эдварда в свой готический замок, она привязывается к нему и убеждает его жить вместе с ней в пасторальной идиллии загородного поместья. Сначала Эдвард был в ужасе, но потом стал знаменитостью среди соседей за уникальный талант постригать живые изгороди и делать дамские прически. Но счастье было недолгим - сельские жители заподозрили, что Эдвард виновен в преступлении. Фильм явно вызывает ассоциации с Франкенштейном и даже с "Садовником" (Being There), но у Бертона эта аллегория получилась забавной и трогательной. Блестящая актерская игра, завораживающий визуальный ряд - кино, которое нельзя пропускать. Номинация на "Оскар" за лучший грим. (Иванов М.)
Доп. информация: Оцифровка лицензионной VHS (личный архив) и получение VHSRip alenavova
Эксклюзив для erzsebet.org. При размещении данного релиза на других сайтах ссылка на автора alenavova обязательна.
Релиз
Сэмпл: https://yadi.sk/i/DHWqyu9noD7MZ
Качество видео: VHSRip
Формат видео: AVI
Видео: 704x528 (1.33:1), 25 fps, XviD build 73 ~1743 kbps avg, 0.19 bit/pixel
Аудио: 48 kHz, AC3 Dolby Digital, 2/0 (L,R) ch, ~192 kbps

MediaInfo

Эдвард руки-ножницы - Edward Scissorhands [by alenavova].avi
Format : AVI
Format/Info : Audio Video Interleave
File size : 1.37 GiB
Duration : 1h 40mn
Overall bit rate : 1 945 Kbps
Movie name : Эдвард руки-ножницы - Edward Scissorhands [by alenavova]
Director : by alenavova
Writing application : VirtualDubMod 1.5.10.3 | www.virtualdub-fr.org || (build 2550/release)
Copyright : Edich2
Comment : erzsebet.org
Video
ID : 0
Format : MPEG-4 Visual
Format profile : Advanced [email protected]
Format settings, BVOP : 1
Format settings, QPel : No
Format settings, GMC : No warppoints
Format settings, Matrix : Custom
Codec ID : XVID
Codec ID/Hint : XviD
Duration : 1h 40mn
Bit rate : 1 744 Kbps
Width : 704 pixels
Height : 528 pixels
Display aspect ratio : 4:3
Frame rate : 25.000 fps
Color space : YUV
Chroma subsampling : 4:2:0
Bit depth : 8 bits
Scan type : Progressive
Compression mode : Lossy
Bits/(Pixel*Frame) : 0.188
Stream size : 1.23 GiB (90%)
Writing library : XviD 73
Audio
ID : 1
Format : AC-3
Format/Info : Audio Coding 3
Mode extension : CM (complete main)
Format settings, Endianness : Big
Codec ID : 2000
Duration : 1h 40mn
Bit rate mode : Constant
Bit rate : 192 Kbps
Channel(s) : 2 channels
Channel positions : Front: L R
Sampling rate : 48.0 KHz
Frame rate : 31.250 fps (1536 spf)
Compression mode : Lossy
Stream size : 138 MiB (10%)
Alignment : Split accross interleaves
Interleave, duration : 40 ms (1.00 video frame)
Interleave, preload duratio : 500 ms

Скриншоты


If your ratio falls below 0.3, you will not be able to download Torrents! More about the rating.

[erzsebet.pl].t48978.torrent
Torrent: Registered   [ 2017-12-10 22:03 ]

Download .torrent

Download

14 KB

Status: checked
Completed: 16 times
Size: 1.37 GB
terms.php

#1

10-Dec-2017 22:00

[Profile]  [PM] 
Display posts:    

You cannot post new topics in this forum
You cannot reply to topics in this forum
You cannot edit your posts in this forum
You cannot delete your posts in this forum
You cannot vote in polls in this forum
You cannot attach files in this forum
You can download files in this forum
User agreement
For copyright holders
Advertise on this site

Скачайте на халяву через торрент на трекере erzsebet.pl

!ATTENTION!
The site does not give electronic versions of products, and is engaged only in a collecting and cataloguing of the references sent and published at a forum by our readers. If you are the legal owner of any submitted material and do not wish that the reference to it was in our catalogue, contact us and we shall immediately remove her. Files for an exchange on tracker are given by users of a site, and the administration does not bear the responsibility for their maintenance. The request to not fill in the files protected by copyrights, and also files of the illegal maintenance!