Воздушная кукуруза и малиновое мороженое / Popcorn und Himbeereis (Франц Йозеф Готлиб / Franz Josef Gottlieb) [1978, Германия, ФРГ, комедия, DVDRip] VO

DL-List and Torrent activity
Size:  1.45 GB   |    Registered:  2 years 10 months   |    Completed:  16 times
Seeders:  6  
 
   
 
 

Max Levien ®

Longevity:
2 years 10 months
Posts:
20374

[Quote] 

Воздушная кукуруза и малиновое мороженое / Popcorn und Himbeereis
Страна: ФРГ
Жанр: комедия
Год выпуска: 1978
Продолжительность: 01:30:33
Перевод: Одноголосый закадровый
Субтитры: нет
Оригинальная дорожка: немецкий
Режиссер: Франц Йозеф Готлиб / Franz Josef Gottlieb
В ролях: Оливия Паскаль, Захи Ной, Бенни Шнайер, Геса Тома, Беа Фидлер, Урсула Бучфеллнер, Долли Доллар, Херберт Фукс, Александр Грилль, Маргарета Куске
Описание: Девушка по имени Виви работает в фирме по производству мебели «Кика». В один день начальство поручило ей отнести в банк 17 тысяч марок. По пути она встретила свою подругу, которая якобы познакомилась с сыном директора этой самой мебельной фирмы. Не зная, как отвязаться от своего предыдущего ухажера, она просит Виви сказать ему о том, что всё кончено, а сама предлагает отнести деньги в банк и в конце дня передать квитанцию. Естественно, по пути в банк незатейливая барышня встречает своего ухажера и вместе они идут на фабрику, чтобы предаться любовным утехам на новых кроватях. В разгар веселья пакет с деньгами падает чуть ли не под матрац, а его хозяйка напрочь забывает о своей миссии. Пропажа была обнаружена только после того, как кровати уже развезли клиентам: отелю, больнице и монастырю. Теперь две подруги и ещё ряд «приклеившихся» личностей мужского пола должны ехать к каждому клиенту и тайком проверять каждую кровать, что, естественно, сопровождается массой умопомрачительных шуток и пикантных эпизодов...
Качество видео: DVDRip
Формат видео: AVI
Видео: 688x400 (1.72:1), 25 fps, XviD build 73 ~1960 kbps avg, 0.28 bit/pixel
Аудио: 48 kHz, MPEG Layer 3, 2 ch, ~128.00 kbps avg - одноголосый
Аудио: 48 kHz, AC3 Dolby Digital, 2/0 (L,R) ch, ~192 kbps - оригинал

MediaInfo

Общее
Полное имя : J:\Popcorn.und.Himbeereis.1978.dvdrip_[1.46]_[teko].avi
Формат : AVI
Формат/Информация : Audio Video Interleave
Размер файла : 1,45 Гбайт
Продолжительность : 1 ч. 30 м.
Общий поток : 2296 Кбит/сек
Программа кодирования : VirtualDubMod 1.5.10.3 | www.virtualdub-fr.org || (build 2550/release)
Библиотека кодирования : VirtualDubMod build 2550/release
Видео
Идентификатор : 0
Формат : MPEG-4 Visual
Профиль формата : Advanced [email protected]
Параметр BVOP формата : 1
Параметр QPel формата : Нет
Параметр GMC формата : Без точки перехода
Параметр матрицы формата : Выборочная
Идентификатор кодека : XVID
Идентификатор кодека/Подсказка : XviD
Продолжительность : 1 ч. 30 м.
Битрейт : 1961 Кбит/сек
Ширина : 688 пикселей
Высота : 400 пикселей
Соотношение сторон : 1,720
Частота кадров : 25,000 кадров/сек
Цветовое пространство : YUV
Субдискретизация насыщенности : 4:2:0
Битовая глубина : 8 бит
Тип развёртки : Прогрессивная
Метод сжатия : С потерями
Бит/(Пиксели*Кадры) : 0.285
Размер потока : 1,24 Гбайт (85%)
Библиотека кодирования : XviD 73
Аудио #1
Идентификатор : 1
Формат : MPEG Audio
Версия формата : Version 1
Профиль формата : Layer 3
Идентификатор кодека : 55
Идентификатор кодека/Подсказка : MP3
Продолжительность : 1 ч. 30 м.
Вид битрейта : Постоянный
Битрейт : 128 Кбит/сек
Каналы : 2 канала
Частота : 48,0 КГц
Метод сжатия : С потерями
Размер потока : 82,9 Мбайт (6%)
Выравнивание : Соединение по промежуткам
Продолжительность промежутка : 40 мс. (1,00 видеокадр)
Время предзагрузки промежутка : 504 мс.
Библиотека кодирования : LAME3.98r
Настройки программы : -m s -V 4 -q 2 -lowpass 17 -b 128
Аудио #2
Идентификатор : 2
Формат : AC-3
Формат/Информация : Audio Coding 3
Расширение режима : CM (complete main)
Параметр Endianness формата : Big
Идентификатор кодека : 2000
Продолжительность : 1 ч. 30 м.
Вид битрейта : Постоянный
Битрейт : 192 Кбит/сек
Каналы : 2 канала
Расположение каналов : Front: L R
Частота : 48,0 КГц
Битовая глубина : 16 бит
Метод сжатия : С потерями
Размер потока : 124 Мбайт (8%)
Выравнивание : Разделение по промежуткам
Продолжительность промежутка : 40 мс. (1,00 видеокадр)
Время предзагрузки промежутка : 500 мс.
Релиз группы:
--

If your ratio falls below 0.3, you will not be able to download Torrents! More about the rating.

[erzsebet.pl].t48980.torrent
Torrent: Registered   [ 2017-12-10 22:03 ]

Download .torrent

Download

15 KB

Status: checked
Completed: 16 times
Size: 1.45 GB
terms.php

#1

10-Dec-2017 22:00

[Profile]  [PM] 
Display posts:    

You cannot post new topics in this forum
You cannot reply to topics in this forum
You cannot edit your posts in this forum
You cannot delete your posts in this forum
You cannot vote in polls in this forum
You cannot attach files in this forum
You can download files in this forum
User agreement
For copyright holders
Advertise on this site

Скачайте на халяву через торрент на трекере erzsebet.pl

!ATTENTION!
The site does not give electronic versions of products, and is engaged only in a collecting and cataloguing of the references sent and published at a forum by our readers. If you are the legal owner of any submitted material and do not wish that the reference to it was in our catalogue, contact us and we shall immediately remove her. Files for an exchange on tracker are given by users of a site, and the administration does not bear the responsibility for their maintenance. The request to not fill in the files protected by copyrights, and also files of the illegal maintenance!