Бегущий человек / The Running Man (Пол Майкл Глейзер / Paul Michael Glaser) [1987, США, Фантастика, боевик, триллер, BDRip] AVO Ю. Сербин

DL-List and Torrent activity
Size:  1.48 GB   |    Registered:  2 years 10 months   |    Completed:  16 times
Seeders:  2  
 
   
 
 

Max Levien ®

Longevity:
2 years 10 months
Posts:
20374

[Quote] 

Бегущий человекThe Running Man- -Страна:
Жанр: Фантастика, боевик, триллер
Год выпуска: 1987
Продолжительность: 01:40:43-Перевод: Авторский (одноголосый закадровый) Ю. Сербин
Субтитры: нет
Режиссер: Пол Майкл Глейзер / Paul Michael Glaser-В ролях: Арнольд Шварценеггер, Мария Кончита Алонсо, Яфет Котто, Джим Браун, Джесси Вентура, Эрланд ван Лидт, Марвин Дж. МакИнтайр, Гас Ретвиш, профессор Тору Танака, Мик Флитвуд-Описание: К 2017 году излюбленным развлечением для жителей Америки, превратившейся в полувоенное государство, стало садистское телешоу «Бегущий человек», участники которого — невинные жертвы — не имели ни единого шанса на выживание.
Среди них оказался полицейский Бэн Ричардс (Арнольд Шварценеггер), отказавшийся расстрелять безоружную толпу голодных людей. Теперь вместе с собратьями по несчастью ему предстоит принять участие в безумной гонке со смертью, сразиться с непобедимыми монстрами — Профессором Крио, Бензопилой, Шаровой Молнией и Динамо, и отомстить бесчеловечному хозяину шоу.-Доп. информация: Полный перевод- -Качество видео: BDRip
Исходник: Blu-ray Remux /1080p
Формат видео: AVI-Видео: 720x400 (16:9), 25.000 fps, XviD build 64~1 900 Kbps avg, 0.27 bit/pixel
Аудио: 48 kHz, AC3 Dolby Digital, 1/0 (C) ch, ~192 kbps avg (Ю. Сербин)-

Знаете ли Вы, что....

* Ричард Доусон, игравший создателя и ведущего телешоу «Самая опасная игра» Дэймона Киллиана в реальной жизни также является ведущим американского игрового шоу «Семейная свара» (Family Feud).
* Танцевальные номера для девушек из шоу ставила известная поп-певица и танцовщица Пола Абдул (Paula Abdul).
* В этой картине, как и во многих других, Арнольд Шварцененггер также произносит свою коронную фразу: «Я вернусь!» (I’ll be back!).
* Изначально на роль Бена Ричардса намечался Кристофер Ривз (Christopher Reeves).
* Ценители кино заметили даже такую мелкую оплошность создателей фильма, как несоответствие географических координат. А именно. Если в вертолете, летящим над Бейкерсфилдом, показаны координаты – 45 градусов северной широты и 19 градусов восточной долготы, то в реальности эта местность имеет координаты – 35,3 и 119 соответственно.
* Одним из кандидатов на главную роль был Дольф Лундгрен.
* Фильм снят по произведению Ричарда Бахмана. Это псевдоним Стивена Кинга.
* Писатель Роберт Шекли подал в суд на создателей картины, обвиняя их в плагиате.
* Стивен Кинг, по слухам, остался недоволен постановкой и исполнителем главной роли.

Дополнительная информация

Звуковая дорожка из этой раздачи http://erzsebet.org/forum/viewtopic.php?t=3923103
Большое спасибо 21Sepsis

MediaInfo

Format : AVI
Format/Info : Audio Video Interleave
File size : 1.48 GiB
Duration : 1h 40mn
Overall bit rate : 2 102 Kbps
Writing application : VirtualDubMod 1.5.10.2 (build 2540/release)
Writing library : VirtualDubMod build 2540/release
Video
ID : 0
Format : MPEG-4 Visual
Format profile : Advanced [email protected]
Format settings, BVOP : 1
Format settings, QPel : No
Format settings, GMC : No warppoints
Format settings, Matrix : Default (H.263)
Codec ID : XVID
Codec ID/Hint : XviD
Duration : 1h 40mn
Bit rate : 1 900 Kbps
Width : 720 pixels
Height : 400 pixels
Display aspect ratio : 16:9
Frame rate : 25.000 fps
Color space : YUV
Chroma subsampling : 4:2:0
Bit depth : 8 bits
Scan type : Progressive
Compression mode : Lossy
Bits/(Pixel*Frame) : 0.264
Stream size : 1.34 GiB (90%)
Writing library : XviD 64
Audio
ID : 1
Format : AC-3
Format/Info : Audio Coding 3
Mode extension : CM (complete main)
Codec ID : 2000
Duration : 1h 40mn
Bit rate mode : Constant
Bit rate : 192 Kbps
Channel(s) : 1 channel
Channel positions : Front: C
Sampling rate : 48.0 KHz
Bit depth : 16 bits
Compression mode : Lossy
Stream size : 138 MiB (9%)
Alignment : Split accross interleaves
Interleave, duration : 40 ms (1.00 video frame)
Interleave, preload duration : 500 ms

Скриншот c названием фильма

Скриншоты



If your ratio falls below 0.3, you will not be able to download Torrents! More about the rating.

[erzsebet.pl].t48982.torrent
Torrent: Registered   [ 2017-12-10 22:03 ]

Download .torrent

Download

15 KB

Status: checked
Completed: 16 times
Size: 1.48 GB
terms.php

#1

10-Dec-2017 22:00

[Profile]  [PM] 
Display posts:    

You cannot post new topics in this forum
You cannot reply to topics in this forum
You cannot edit your posts in this forum
You cannot delete your posts in this forum
You cannot vote in polls in this forum
You cannot attach files in this forum
You can download files in this forum
User agreement
For copyright holders
Advertise on this site

Скачайте на халяву через торрент на трекере erzsebet.pl

!ATTENTION!
The site does not give electronic versions of products, and is engaged only in a collecting and cataloguing of the references sent and published at a forum by our readers. If you are the legal owner of any submitted material and do not wish that the reference to it was in our catalogue, contact us and we shall immediately remove her. Files for an exchange on tracker are given by users of a site, and the administration does not bear the responsibility for their maintenance. The request to not fill in the files protected by copyrights, and also files of the illegal maintenance!