Незнакомец и стрелок / Кровавые деньги / Кровные деньги / The Stranger and the Gunfighter / Blood Money / Kárate, el Colt y el impostor, El (Антонио Маргерити / Antonio Margheriti) [1974, Италия, вестерн, боевые искусства, DVDRip] AVO (Кузнецов)

DL-List and Torrent activity
Size:  744 MB   |    Registered:  2 years 10 months   |    Completed:  16 times
Seeders:  2  
 
   
 
 

Max Levien ®

Longevity:
2 years 10 months
Posts:
20374

[Quote] 

Незнакомец и стрелок / Кровавые деньги / Кровные деньги / The Stranger and the Gunfighter / Blood Money / Kárate, el Colt y el impostor, El/ Mao shan dao ren
Год выпуска: 1974
Страна: Италия, США, Гон Конг
Жанр: вестерн, боевые искусства
Продолжительность: 01:35:48.242 (137820 frames)
Перевод: Авторский (одноголосый, закадровый) - Сергей Кузнецов
Русские субтитры: нет
Режиссер: Антонио Маргерити / Antonio Margheriti
В ролях: Ли Ван Клиф, Лье Ло, Пэтти Шепард, Феми Бенуccи, Карен Йе, Джулиан Угарте, Эрика Бланк, Бернабе Барта Барри, Alfred Boreman, Шен Чан
Описание: Комедийный спагетти-вестерн о бойце кунг-фу, попадающем на Дикий Запад. Вместе с с героем Ван Клифа он ищет сокровища, а фрагменты ведущей к ним карты вытатуированы на задницах разных красоток.
Дополнительно: есть пара участков по 20-30 секунд без перевода. увы, но таков исходник.
Качество: DVDRip
Формат: AVI
Видео кодек: XviD
Аудио кодек: MP3
Видео: 688x288 (2.39:1), 23.976 fps, XviD MPEG-4 ~948 kbps avg, 0.20 bit/pixel
Аудио: 48 kHz, MPEG Layer 3, 2 ch, ~128.00 kbps avg

Медиаинфо

General
Complete name : D:\фильмы\neznakomec_i_strelok_745_[torrents.ru]_by_bm11.avi
Format : AVI
Format/Info : Audio Video Interleave
File size : 744 MiB
Duration : 1h 35mn
Overall bit rate : 1 086 Kbps
Writing application : VirtualDubMod 1.5.10.2 (build 2540/release)
Writing library : VirtualDubMod build 2540/release
Video
Format : MPEG-4 Visual
Format profile : Streaming [email protected]
Format settings, BVOP : Yes
Format settings, QPel : No
Format settings, GMC : No warppoints
Format settings, Matrix : Default
Muxing mode : Packed bitstream
Codec ID : XVID
Codec ID/Hint : XviD
Duration : 1h 35mn
Bit rate : 949 Kbps
Width : 688 pixels
Height : 288 pixels
Display aspect ratio : 2.35
Frame rate : 23.976 fps
Resolution : 24 bits
Colorimetry : 4:2:0
Scan type : Progressive
Bits/(Pixel*Frame) : 0.200
Stream size : 650 MiB (87%)
Writing library : XviD 50
Audio
Format : MPEG Audio
Format version : Version 1
Format profile : Layer 3
Codec ID : 55
Codec ID/Hint : MP3
Duration : 1h 35mn
Bit rate mode : Constant
Bit rate : 128 Kbps
Channel(s) : 2 channels
Sampling rate : 48.0 KHz
Resolution : 16 bits
Stream size : 87.7 MiB (12%)
Alignment : Aligned on interleaves
Interleave, duration : 42 ms (1.00 video frame)
Interleave, preload duration : 504 ms
Релиз группы:
--

If your ratio falls below 0.3, you will not be able to download Torrents! More about the rating.

[erzsebet.pl].t48992.torrent
Torrent: Registered   [ 2017-12-10 22:03 ]

Download .torrent

Download

15 KB

Status: checked
Completed: 16 times
Size: 744 MB
terms.php

#1

10-Dec-2017 22:00

[Profile]  [PM] 
Display posts:    

You cannot post new topics in this forum
You cannot reply to topics in this forum
You cannot edit your posts in this forum
You cannot delete your posts in this forum
You cannot vote in polls in this forum
You cannot attach files in this forum
You can download files in this forum
User agreement
For copyright holders
Advertise on this site

Скачайте на халяву через торрент на трекере erzsebet.pl

!ATTENTION!
The site does not give electronic versions of products, and is engaged only in a collecting and cataloguing of the references sent and published at a forum by our readers. If you are the legal owner of any submitted material and do not wish that the reference to it was in our catalogue, contact us and we shall immediately remove her. Files for an exchange on tracker are given by users of a site, and the administration does not bear the responsibility for their maintenance. The request to not fill in the files protected by copyrights, and also files of the illegal maintenance!