Окно спальни / The Bedroom Window (Кёртис Хэнсон / Curtis Hanson) [1987, США, триллер, криминал, детектив, Telesync] [Советская прокатная копия] Dub (Мосфильм)

DL-List and Torrent activity
Size:  4.13 GB   |    Registered:  2 years 10 months   |    Completed:  16 times
Seeders:  2  
 
   
 
 

Max Levien ®

Longevity:
2 years 10 months
Posts:
20374

[Quote] 

Окно спальни / The Bedroom Window [Советская прокатная копия]- Страна: США
Жанр: триллер, криминал, детектив
Год выпуска: 1987
Продолжительность: 01:46:46-Перевод: Профессиональный (дублированный) - Киностудия "Мосфильм"
Субтитры: нет-Режиссер: Кёртис Хэнсон / Curtis Hanson
В ролях: Стив Гуттенберг, Элизабет МакГоверн, Изабель Юппер, Карл Ламбли, Пол Шенар, Уоллес Шоун, Фредерик Коффин, Брэд Гринкуист, Роберт Шенккан, Мори Чайкин, Марк Марголис, Кэйт МакГрегор-Стюарт, Пенелопа Аллен, Кевин О'Рурк, Миванви Дженн, Ричард МакГоф, Джоди Лонг, Ричард К. Олсен, Леон Риппи, Джей Майкл Хантер, Джойс Флик Вендл, Уинстон Хемингуэй, Майкл Бёрджесс- | Релиз: -Описание: Очаровательная любовница Терри Ламберта — жена его босса Сильвия. Однажды ночью она выглядывает из окна спальни Терри и становится свидетельницей нападения на молодую женщину. Чтобы не скомпрометировать Сильвию Терри соглашается выступить вместо нее свидетелем, но неожиданно становится в глазах полиции главным подозреваемым.
Его обвиняют в серии жестоких убийств. Для Терри остается единственный путь к спасению — предпринять собственное расследование в попытке найти настоящего убийцу. А единственный человек, который готов помочь Терри — Дениз, та самая жертва нападения, которое произошло под окном его спальни…-Семпл: http://sendfile.su/1266341-Тип релиза: Telesync
Контейнер: MPG
Видео: 720x576 (4:3) @ 768x576, 25.000 fps, MPEG-2 Video, ~5175 Kbps, 0.499 bits/pixel
Аудио: Русский, 48.0 KHz, AC3, 2 ch, 256 Kbps

MediaInfo

General
Complete name : Окно спальни 1987 Dub Мосфильм.mpg
Format : MPEG-PS
File size : 4.13 GiB
Duration : 1 h 46 min
Overall bit rate mode : Variable
Overall bit rate : 5 540 kb/s
Video
ID : 224 (0xE0)
Format : MPEG Video
Format version : Version 2
Format profile : [email protected]
Format settings, BVOP : Yes
Format settings, Matrix : Default
Format settings, GOP : Variable
Format settings, picture structure : Frame
Duration : 1 h 46 min
Bit rate mode : Variable
Bit rate : 5 174 kb/s
Maximum bit rate : 9 400 kb/s
Width : 720 pixels
Height : 576 pixels
Display aspect ratio : 4:3
Frame rate : 25.000 FPS
Standard : PAL
Color space : YUV
Chroma subsampling : 4:2:0
Bit depth : 8 bits
Scan type : Interlaced
Scan order : Top Field First
Compression mode : Lossy
Bits/(Pixel*Frame) : 0.499
Time code of first frame : 00:00:00:00
Time code source : Group of pictures header
GOP, Open/Closed : Closed
Stream size : 3.86 GiB (93%)
Color primaries : BT.601 PAL
Transfer characteristics : BT.470 System B, BT.470 System G
Matrix coefficients : BT.601
Audio
ID : 189 (0xBD)-128 (0x80)
Format : AC-3
Format/Info : Audio Coding 3
Mode extension : CM (complete main)
Format settings, Endianness : Big
Muxing mode : DVD-Video
Duration : 1 h 46 min
Bit rate mode : Constant
Bit rate : 256 kb/s
Channel(s) : 2 channels
Channel positions : Front: L R
Sampling rate : 48.0 kHz
Frame rate : 31.250 FPS (1536 spf)
Compression mode : Lossy
Stream size : 196 MiB (5%)

If your ratio falls below 0.3, you will not be able to download Torrents! More about the rating.

[erzsebet.pl].t48998.torrent
Torrent: Registered   [ 2017-12-10 22:03 ]

Download .torrent

Download

21 KB

Status: checked
Completed: 16 times
Size: 4.13 GB
terms.php

#1

10-Dec-2017 22:00

[Profile]  [PM] 
Display posts:    

You cannot post new topics in this forum
You cannot reply to topics in this forum
You cannot edit your posts in this forum
You cannot delete your posts in this forum
You cannot vote in polls in this forum
You cannot attach files in this forum
You can download files in this forum
User agreement
For copyright holders
Advertise on this site

Скачайте на халяву через торрент на трекере erzsebet.pl

!ATTENTION!
The site does not give electronic versions of products, and is engaged only in a collecting and cataloguing of the references sent and published at a forum by our readers. If you are the legal owner of any submitted material and do not wish that the reference to it was in our catalogue, contact us and we shall immediately remove her. Files for an exchange on tracker are given by users of a site, and the administration does not bear the responsibility for their maintenance. The request to not fill in the files protected by copyrights, and also files of the illegal maintenance!