Седьмая мишень / La 7eme cible (Клод Пиното / Claude Pinoteau) [1984, Франция, триллер, драма, мелодрама, DVDRip] [Советская прокатная копия] Dub (Мосфильм)

DL-List and Torrent activity
Size:  1.37 GB   |    Registered:  2 years 10 months   |    Completed:  16 times
Seeders:  2  
 
   
 
 

Max Levien ®

Longevity:
2 years 10 months
Posts:
20374

[Quote] 

Седьмая мишень / La 7eme cible / Советская прокатная копия
Страна: Франция
Жанр: триллер, драма, мелодрама
Год выпуска: 1984
Продолжительность: 01:30:02
Перевод: Профессиональный (дублированный) Мосфильм
Субтитры: нет
Режиссер: Клод Пиното / Claude Pinoteau
В ролях: Лино Вентура, Леа Массари, Жан Пуаре, Роже Планшон, Элизабет Буржин, Беатрис Аженен, Лина Волонги, Жан-Пьер Бакри, Роберт Хоффман, Майкл Моррис, Эрик Демарец, Жан-Франсуа Реми, Анник Алан, Сильви Орсье, Франсис Лемер, Жан-Жак Моро, Николя Сильбер, Мадлен Барбюле, Филипп Беллай, Ваня Вилер, Марио Пилар, Жанин Сушон, Анник Альере, Мишлин Бурде, Ги Ди Риго, Андре Абер, Николас Хоутри, Стэнли Медоуз, Роланд ВэйденВ промозглый вечер Бастьен становится жертвой неизвестных, жестоко избивших его ни за что ни про что. Полагая, что это случайность, Бастьен попробовал забыть произошедшее с ним, но дальнейшие события заставили его задуматься…
Описание: В промозглый вечер Бастьен становится жертвой неизвестных, жестоко избивших его ни за что ни про что. Полагая, что это случайность, Бастьен попробовал забыть произошедшее с ним, но дальнейшие события заставили его задуматься…
Сэмпл: http://multi-up.com/1100076
Качество видео: DVDRip
Формат видео: AVI
Видео: 720x448 (16:10) 25fps XviD 1976kbps
Аудио: 48kHz AC3 2ch 192 kbps

MediaInfo

General
Complete name : C:\Users\Михалсергеич\Desktop\Седьмая мишень.avi
Format : AVI
Format/Info : Audio Video Interleave
File size : 1.37 GiB
Duration : 1h 30mn
Overall bit rate : 2 175 Kbps
Writing application : VirtualDubMod 1.5.4.1 (build 2178/release)
Writing library : VirtualDubMod build 2178/release
Video
ID : 0
Format : MPEG-4 Visual
Format profile : Advanced [email protected]
Format settings, BVOP : 1
Format settings, QPel : No
Format settings, GMC : No warppoints
Format settings, Matrix : Custom
Codec ID : XVID
Codec ID/Hint : XviD
Duration : 1h 30mn
Bit rate : 1 976 Kbps
Width : 720 pixels
Height : 448 pixels
Display aspect ratio : 16:10
Frame rate : 25.000 fps
Color space : YUV
Chroma subsampling : 4:2:0
Bit depth : 8 bits
Scan type : Progressive
Compression mode : Lossy
Bits/(Pixel*Frame) : 0.245
Stream size : 1.24 GiB (91%)
Writing library : XviD 64
Audio
ID : 1
Format : AC-3
Format/Info : Audio Coding 3
Mode extension : CM (complete main)
Format settings, Endianness : Big
Codec ID : 2000
Duration : 1h 30mn
Bit rate mode : Constant
Bit rate : 192 Kbps
Channel(s) : 2 channels
Channel positions : Front: L R
Sampling rate : 48.0 KHz
Frame rate : 31.250 fps (1536 spf)
Compression mode : Lossy
Stream size : 124 MiB (9%)
Alignment : Split accross interleaves
Interleave, duration : 96 ms (2.40 video frames)
Interleave, preload duration : 96 ms

Скриншот c названием фильма

Скриншоты

If your ratio falls below 0.3, you will not be able to download Torrents! More about the rating.

[erzsebet.pl].t48999.torrent
Torrent: Registered   [ 2017-12-10 22:03 ]

Download .torrent

Download

14 KB

Status: checked
Completed: 16 times
Size: 1.37 GB
terms.php

#1

10-Dec-2017 22:00

[Profile]  [PM] 
Display posts:    

You cannot post new topics in this forum
You cannot reply to topics in this forum
You cannot edit your posts in this forum
You cannot delete your posts in this forum
You cannot vote in polls in this forum
You cannot attach files in this forum
You can download files in this forum
User agreement
For copyright holders
Advertise on this site

Скачайте на халяву через торрент на трекере erzsebet.pl

!ATTENTION!
The site does not give electronic versions of products, and is engaged only in a collecting and cataloguing of the references sent and published at a forum by our readers. If you are the legal owner of any submitted material and do not wish that the reference to it was in our catalogue, contact us and we shall immediately remove her. Files for an exchange on tracker are given by users of a site, and the administration does not bear the responsibility for their maintenance. The request to not fill in the files protected by copyrights, and also files of the illegal maintenance!