Кинджайт: Запретные темы / Kinjite: Forbidden Subjects (Дж. Ли Томпсон /J. Lee Thompson) [1988, США, боевик, триллер, драма, криминал, DVDRip] MVO (5 Канал СПБ (Санкт-Петербург))

DL-List and Torrent activity
Size:  1.35 GB   |    Registered:  2 years 10 months   |    Completed:  16 times
Seeders:  2  
 
   
 
 

Max Levien ®

Longevity:
2 years 10 months
Posts:
20374

[Quote] 

Кинджайт: Запретные темы / Kinjite: Forbidden Subjects
Страна: США
Жанр: Боевик, триллер, драма, криминал
Год выпуска: 1988
Продолжительность: 01:37:54
Перевод: Профессиональный (многоголосый закадровый) 5 Канал СПБ (Санкт-Петербург)
Текст читали: Максим Сергеев, Светлана Репитина, Елена Шульман, Владимир Маслаков
Субтитры: нет
Оригинальная аудиодорожка: нет
Режиссер: Дж. Ли Томпсон /J. Lee Thompson
В ролях: Чарльз Бронсон, Джилл Ито, Перри Лопес, Синтия Гау, Хуан Фернандес, Вероника Каротерс, Джеймс Пакс, Пегги Липтон, Сай Ричардсон, Мэрион Юе, Билл МакКинни, Джералд Кастилло, Николь Эггерт, Эми Хэтэуэй, Мишель Вонг, Сэм Чю мл., Джим Ишида, Лейла Ли Олсен, Хелен Лин, Ричард Э. Батлер, Билл Чо Ли, Джером Тор, Майкл Чонм
Описание: В фильме две основные сюжетные линии. Лейтенанта Кроу (Чарльз Бронсон), стареющего копа из отдела нравов, который ведет жестокую борьбу с сутенером и наркоторговцем Дьюком (Хуан Фернандес). И японского служащего-извращенца Хироши Хада (Джеймс Пакс), которого направляют в отделение крутой корпорации в Лос-Анджелес. Линии вначале соприкоснуться (когда японец попытается залезть под юбку дочери лейтенанта), а затем переплетутся – когда Дьюк похитит дочь японца, чтобы заставить ее заниматься проституцией. Чарлз Бронсон, несмотря на преклонный возраст, браво бьет морды и борется со всякими подонками (один эпизод с ботинками на балконе чего стоит)...
Доп. информация: Рип мой. За русскую дорогу спасибо hvostenota. Работа со звуком благодарю alex769
Так как в начале звуковой дороги отсутствуют 4 мин. (титры), то на это место сделана вставка их другого русского перевода.
Сэмпл: http://multi-up.com/962768
Качество видео: DVDRip
Исходник
Формат видео: AVI
Видео: XviD build 50, 704x384 (1.85:1), 23.976 fps, 1774 kbps avg
Аудио: Russian AC3 Dolby Digital, 48 kHz, 2/0 (L,R) ch, 192.00 kbps avg

MediaInfo

Complete name : D:\Загрузки\Kinjite.Forbidden Subjects_1988.DVDRip.MVO.avi
Format : AVI
Format/Info : Audio Video Interleave
File size : 1.35 GiB
Duration : 1h 37mn
Overall bit rate : 1 975 Kbps
Writing application : VirtualDubModRus 1.5.10.2 (build 2542/release)
Writing library : VirtualDubMod build 2542/release
Video
ID : 0
Format : MPEG-4 Visual
Format profile : Advanced [email protected]
Format settings, BVOP : 2
Format settings, QPel : No
Format settings, GMC : No warppoints
Format settings, Matrix : Default (MPEG)
Codec ID : XVID
Codec ID/Hint : XviD
Duration : 1h 37mn
Bit rate : 1 774 Kbps
Width : 704 pixels
Height : 384 pixels
Display aspect ratio : 1.85:1
Frame rate : 23.976 fps
Color space : YUV
Chroma subsampling : 4:2:0
Bit depth : 8 bits
Scan type : Progressive
Compression mode : Lossy
Bits/(Pixel*Frame) : 0.274
Stream size : 1.21 GiB (90%)
Writing library : XviD 73
Audio
ID : 1
Format : AC-3
Format/Info : Audio Coding 3
Mode extension : CM (complete main)
Format settings, Endianness : Big
Codec ID : 2000
Duration : 1h 37mn
Bit rate mode : Constant
Bit rate : 192 Kbps
Channel(s) : 2 channels
Channel positions : Front: L R
Sampling rate : 48.0 KHz
Bit depth : 16 bits
Compression mode : Lossy
Stream size : 134 MiB (10%)
Alignment : Split accross interleaves
Interleave, duration : 42 ms (1.00 video frame)
Interleave, preload duration : 500 ms

Скриншоты

If your ratio falls below 0.3, you will not be able to download Torrents! More about the rating.

[erzsebet.pl].t49000.torrent
Torrent: Registered   [ 2017-12-10 22:03 ]

Download .torrent

Download

14 KB

Status: checked
Completed: 16 times
Size: 1.35 GB
terms.php

#1

10-Dec-2017 22:00

[Profile]  [PM] 
Display posts:    

You cannot post new topics in this forum
You cannot reply to topics in this forum
You cannot edit your posts in this forum
You cannot delete your posts in this forum
You cannot vote in polls in this forum
You cannot attach files in this forum
You can download files in this forum
User agreement
For copyright holders
Advertise on this site

Скачайте на халяву через торрент на трекере erzsebet.pl

!ATTENTION!
The site does not give electronic versions of products, and is engaged only in a collecting and cataloguing of the references sent and published at a forum by our readers. If you are the legal owner of any submitted material and do not wish that the reference to it was in our catalogue, contact us and we shall immediately remove her. Files for an exchange on tracker are given by users of a site, and the administration does not bear the responsibility for their maintenance. The request to not fill in the files protected by copyrights, and also files of the illegal maintenance!