Бездна / The abyss (Джеймс Кэмерон / James Cameron) [1989, США, фантастика, триллер, драма, VHSRip] [Fullscreen] AVO (Ю.Живов (ранний))

DL-List and Torrent activity
Size:  5.65 GB   |    Registered:  2 years 10 months   |    Completed:  16 times
Seeders:  2  
 
   
 
 

Max Levien ®

Longevity:
2 years 10 months
Posts:
20374

[Quote] 

Бездна / The abyss / Самая полная версия в Full Screen- Страна: США
Жанр: фантастика, триллер, драма
Год выпуска: 1989
Продолжительность: 02:51:21-Перевод: Авторский (одноголосый закадровый) Юрий Живов (ранний)
Субтитры: нет
Оригинальная аудиодорожка: нет-Режиссер: Джеймс Кэмерон / James Cameron-В ролях: Эд Харрис, Мэри Элизабет Мастрантонио, Майкл Бин, Лео Бёрместер, Тодд Графф, Джон Бедфорд Ллойд, Дж. К. Куин, Кимберли Скотт, Капитан Кидд Брюер мл., Джордж Роберт Клек-Описание:
Атомная подводная лодка «Монтана» ВМФ США с ядерным оружием на борту терпит крушение на огромной глубине. Министерство флота просит помощи у специалистов подводной исследовательской станции, работающей неподалеку от места аварии субмарины.
При поддержке четырех военных разведчиков исследователи должны выяснить возможную причину трагедии и нейтрализовать ядерные боеголовки. Но в океанской бездне им предстоит столкнуться с неведомым…-ВАЖНО! Кассете очень много лет! Она можно сказать очень древняя, к тому-же еще и Коника. Поэтому Супер-пупер изображения HD не ждите! Смотрим скриншоты и Сэмпл в первую очередь! Смотрим пример сравнения кадров с узкокалейной (широкоэкранной) версией что везде в сети. И только потом решаем - качать или нет. Битрейт видео нормальный, изображение не дергается, картинка - выжато на максимум возможного с той старенькой кассеты. Оцифровывалось на 6-ти головочном "Панасоник" (но с МОНО на два канала, Аудио-голова где-то поломалась и теперь только моно-звук.-Юра Живов тут наверное самый первый его перевод этого фильма, ибо *ну очень древняя кассета.-Для "Танкистов" повторяю особо: не вздумайте писать комментарии "Хреновое качество, галиматья, дрянь - зачем такое выкладывать" и т.д. Кому нужно - скачают и спасибо скажут, остальные *из подполья* проходят мимо без злобных комментариев.-Полно-экранная версия фильма ВПЕРВЫЕ в сети в таком САМОМ полном варианте этого фильма! Тут представлен весь фильм полностью от начала и до конца! Все вырезанные моменты что отсутствуют на дисках тут есть. Если сомневаетесь - смотрите продолжительность. Еще даю *Ах.Огромных размеров супер-кадро-лист, но на обменнике (на файло-картинко-хостинг он не влез. Смотрите по-кадрово на него и решайте для себя - есть у вас такая версия или нет.
А в остальном - приятного просмотра и ностальгируйте, сравнивайте что еще не видели и что осталось за обрезком 16:9.-Сэмпл: http://multi-up.com/1027938-Раскадровка в 200 кадров из фильма (в *png)-Качество видео: VHSRip
Формат видео: TS-Видео: MPEG2 Video 720x576 (4:3) 25fps 4200 Kbps
Аудио: MPEG Audio 48000Hz stereo 320kbps

MediaInfo

General
ID : 1 (0x1)
Complete name : D:\Video\The_Abyss_Full_Version_Vull_Screen_AVO_Gavrilov_VHSRip_MPEG-2_.ts
Format : MPEG-TS
File size : 5.65 GiB
Duration : 2h 51mn
Overall bit rate mode : Variable
Overall bit rate : 4 721 Kbps
Maximum Overall bit rate : 35.5 Mbps
Video
ID : 4113 (0x1011)
Menu ID : 1 (0x1)
Format : MPEG Video
Format version : Version 2
Format profile : [email protected]
Format settings, BVOP : No
Format settings, Matrix : Custom
Format settings, GOP : M=3, N=13
Codec ID : 2
Duration : 2h 51mn
Bit rate : 4 200 Kbps
Width : 720 pixels
Height : 576 pixels
Display aspect ratio : 4:3
Frame rate : 25.000 fps
Standard : PAL
Color space : YUV
Chroma subsampling : 4:2:0
Bit depth : 8 bits
Scan type : Progressive
Compression mode : Lossy
Bits/(Pixel*Frame) : 0.405
Time code of first frame : 00:00:00:00
Time code source : Group of pictures header
Stream size : 4.98 GiB (88%)
Writing library : TMPGEnc XPress 4.4.2.238
Color primaries : BT.601 PAL
Transfer characteristics : BT.470 System B, BT.470 System G
Matrix coefficients : BT.601
Audio
ID : 4352 (0x1100)
Menu ID : 1 (0x1)
Format : MPEG Audio
Format version : Version 1
Format profile : Layer 2
Codec ID : 4
Duration : 2h 51mn
Bit rate mode : Constant
Bit rate : 320 Kbps
Channel count : 2 channels
Sampling rate : 48.0 KHz
Compression mode : Lossy
Stream size : 392 MiB (7%)
Language : Russian

Скриншот c названием фильма

Скриншоты

Сравнение с ДВД и БД-версиями (16:9):



If your ratio falls below 0.3, you will not be able to download Torrents! More about the rating.

[erzsebet.pl].t49003.torrent
Torrent: Registered   [ 2017-12-10 22:03 ]

Download .torrent

Download

29 KB

Status: checked
Completed: 16 times
Size: 5.65 GB
terms.php

#1

10-Dec-2017 22:00

[Profile]  [PM] 
Display posts:    

You cannot post new topics in this forum
You cannot reply to topics in this forum
You cannot edit your posts in this forum
You cannot delete your posts in this forum
You cannot vote in polls in this forum
You cannot attach files in this forum
You can download files in this forum
User agreement
For copyright holders
Advertise on this site

Скачайте на халяву через торрент на трекере erzsebet.pl

!ATTENTION!
The site does not give electronic versions of products, and is engaged only in a collecting and cataloguing of the references sent and published at a forum by our readers. If you are the legal owner of any submitted material and do not wish that the reference to it was in our catalogue, contact us and we shall immediately remove her. Files for an exchange on tracker are given by users of a site, and the administration does not bear the responsibility for their maintenance. The request to not fill in the files protected by copyrights, and also files of the illegal maintenance!