Когда звонит незнакомец / When a Stranger Calls (Фред Уолтон / Fred Walton) [1979, США, ужасы, триллер, BDRip] AVO (Гаврилов)

DL-List and Torrent activity
Size:  744 MB   |    Registered:  2 years 10 months   |    Completed:  16 times
Seeders:  2  
 
   
 
 

Max Levien ®

Longevity:
2 years 10 months
Posts:
20374

[Quote] 

Когда звонит незнакомец / When a Stranger Calls
Страна: США
Жанр: ужасы, триллер
Год выпуска: 1979
Продолжительность: 01:37:23
Перевод: Авторский (одноголосый закадровый) Гаврилов
Субтитры: нет
Оригинальная аудиодорожка: нет
Режиссер: Фред Уолтон / Fred Walton
В ролях: Кэрол Кейн (Jill Johnson), Рутаня Олда (Mrs. Mandrakis), Кармен Ардженциано (Dr. Mandrakis), Керстен Ларкин (Nancy), Уильям Бойетт (Sgt. Sacker), Чарльз Дёрнинг (John Clifford), Рон О’Нил (Lt. Charlie Garber), Хиту (Houseboy), Рейчел Робертс (Dr. Monk), Тони Бекли (Curt Duncan), Коллин Дьюхёрст (Tracy), Майкл Чэмпион (Bill)
Описание:
Студентка Джилл Джонсон остается сиделкой с двумя детьми, родители которых уезжают на уик-энд в город. Вскоре после того, как Джилл укладывает детей спать, раздается телефонный звонок.
Незнакомый мужской голос спрашивает Джилл, что она будет делать следующим вечером. Поначалу незнакомец ведет обыкновенный разговор, что Джилл даже развлекает в практически пустом доме.
Вскоре звонки повторяются и ничего не значащие беседы начинают раздражать Джилл. А когда незнакомец спрашивает: «А ты уверена, что уложила детей спать?», девушка пугается не на шутку. Она понимает, что звонящий незнакомец за ней наблюдает...
Семпл/Все раздачи фильма
Исходник -- BDRemux 1080p http://erzsebet.org/forum/viewtopic.php?t=4398368
Качество видео: BDRip
Формат видео: AVI
Видео: 934 Kbps, 624x352, 23,976 fps, XviD
Аудио: 128 Kbps, 48 KHz, 2 ch, MP3

МедиаИнфо

General
Complete name : E:\When_a_Stranger_Calls_1979.avi
Format : AVI
Format/Info : Audio Video Interleave
File size : 744 MiB
Duration : 1h 37mn
Overall bit rate : 1 069 Kbps
Writing application : VirtualDubMod 1.5.10.3 | www.virtualdub-fr.org || (build 2550/release)
Writing library : VirtualDubMod build 2550/release
Video
ID : 0
Format : MPEG-4 Visual
Format profile : Advanced [email protected]
Format settings, BVOP : Yes
Format settings, QPel : No
Format settings, GMC : No warppoints
Format settings, Matrix : Default (MPEG)
Codec ID : XVID
Codec ID/Hint : XviD
Duration : 1h 37mn
Bit rate : 934 Kbps
Width : 624 pixels
Height : 352 pixels
Display aspect ratio : 16:9
Frame rate : 23.976 fps
Resolution : 8 bits
Colorimetry : 4:2:0
Scan type : Progressive
Bits/(Pixel*Frame) : 0.177
Stream size : 651 MiB (87%)
Writing library : XviD 73
Audio
ID : 1
Format : MPEG Audio
Format version : Version 1
Format profile : Layer 3
Mode : Joint stereo
Format_Settings_ModeExtension : MS Stereo
Codec ID : 55
Codec ID/Hint : MP3
Duration : 1h 35mn
Bit rate mode : Constant
Bit rate : 128 Kbps
Channel(s) : 2 channels
Sampling rate : 48.0 KHz
Stream size : 87.5 MiB (12%)
Alignment : Aligned on interleaves
Interleave, duration : 43 ms (1.02 video frame)
Interleave, preload duration : 504 ms

Скриншоты

If your ratio falls below 0.3, you will not be able to download Torrents! More about the rating.

[erzsebet.pl].t49008.torrent
Torrent: Registered   [ 2017-12-10 22:03 ]

Download .torrent

Download

15 KB

Status: checked
Completed: 16 times
Size: 744 MB
terms.php

#1

10-Dec-2017 22:00

[Profile]  [PM] 
Display posts:    

You cannot post new topics in this forum
You cannot reply to topics in this forum
You cannot edit your posts in this forum
You cannot delete your posts in this forum
You cannot vote in polls in this forum
You cannot attach files in this forum
You can download files in this forum
User agreement
For copyright holders
Advertise on this site

Скачайте на халяву через торрент на трекере erzsebet.pl

!ATTENTION!
The site does not give electronic versions of products, and is engaged only in a collecting and cataloguing of the references sent and published at a forum by our readers. If you are the legal owner of any submitted material and do not wish that the reference to it was in our catalogue, contact us and we shall immediately remove her. Files for an exchange on tracker are given by users of a site, and the administration does not bear the responsibility for their maintenance. The request to not fill in the files protected by copyrights, and also files of the illegal maintenance!