Ошибка молодости / Ошибки молодости / Erreur de jeunesse (Радован Тадич (Тадик) / Radovan Tadic) [1989, Франция, экспериментальная драма, TVRip] AVO (Владимир Штейн)

DL-List and Torrent activity
Size:  2.96 GB   |    Registered:  2 years 10 months   |    Completed:  16 times
Seeders:  2  
 
   
 
 

Max Levien ®

Longevity:
2 years 10 months
Posts:
20374

[Quote] 

Erreur de jeunesse/ Ошибка молодости-- Страна: Франция
Жанр: экспериментальная драма
Год выпуска: 1989
Продолжительность: 01:30:09
Перевод: авторский одноголосый закадровый (Владимир Штейн)
Субтитры: нет
Оригинальная аудиодорожка: нет
Режиссер: Радован Тадич / Radovan Tadic
В ролях: Фансис Фраппа, Мюни, Жеральдин Данон, Патрик Бошо, Дидье Фламан, Жак Дакмин, Ирен Жакоб, Эрик Вьеллар, Жан Пелегри, Филипп Бриго и др.-Описание: Экспериментальная черно-белая картина хорватского режиссера Радована Тадича, поставленная им во Франции.
История странных отношений молодого поэта Антуана и сексуально раскрепощенной девушки Терезы... Главных героев окружают ирреальные персонажи, например, старуха-предвестница смерти...
Один из ранних фильмов Ирен Жакоб.---NB! Качество раздаваемого здесь материала скромное, но хорошего издания на данный момент не существует.---Этот раритет предоставил zulawski, за что ему огромное спасибо!
Никаких действий с предоставленным материалом не производилось.
-Бонусы: нет-Меню: есть-Сэмпл: http://multi-up.com/834345-Тип релиза: TVRip
Контейнер: DVD-Video
Видео кодек: MPEG2
Аудио кодек: MPEG1
Видео: PAL 4:3 (720x576) VBR
Аудио: MPEG1, 2 ch, 256 kbps, MPA, Delay = -10 mSec - русский

DVD Инфо

Title: Erreur de jeunesse
Size: 2.96 Gb ( 3 103 266,00 KBytes ) - DVD-5
Enabled regions: 1, 2, 3, 4, 5, 6, 7, 8
VTS_01 :
Play Length: 01:30:09
Video: PAL 4:3 (720x576) VBR
Audio:
Not specified (MPEG1, 2 ch)
* Menus Information *
VIDEO_TS Menu
Video:
PAL 4:3 (720x576) VBR
Language Unit :
Title Menu
VTS_01 Menu
Video:
NTSC 4:3 (720x480) VBR
Auto Pan&Scan, Auto Letterboxed
Language Unit :
Chapter (PTT) Menu

Медиа Инфо

Общее
Полное имя : H:\torrents\Erreur de jeunesse\VIDEO_TS\VIDEO_TS.BUP
Формат : DVD Video
Профиль формата : Menu
Размер файла : 14,0 Кбайт
Режим общего битрейта : Переменный
Видео
Идентификатор : 224 (0xE0)
Формат : MPEG Video
Версия формата : Version 2
Вид битрейта : Переменный
Ширина : 720 пикселей
Высота : 576 пикселей
Соотношение сторон : 4:3
Частота кадров : 25,000 кадров/сек
Стандарт вещания : PAL
Метод сжатия : С потерями
Текст
Формат : RLE
Формат/Информация : Run-length encoding
Битовая глубина : 2 бит
Общее
Полное имя : H:\torrents\Erreur de jeunesse\VIDEO_TS\VIDEO_TS.IFO
Формат : DVD Video
Профиль формата : Menu
Размер файла : 14,0 Кбайт
Режим общего битрейта : Переменный
Видео
Идентификатор : 224 (0xE0)
Формат : MPEG Video
Версия формата : Version 2
Вид битрейта : Переменный
Ширина : 720 пикселей
Высота : 576 пикселей
Соотношение сторон : 4:3
Частота кадров : 25,000 кадров/сек
Стандарт вещания : PAL
Метод сжатия : С потерями
Текст
Формат : RLE
Формат/Информация : Run-length encoding
Битовая глубина : 2 бит
Общее
Полное имя : H:\torrents\Erreur de jeunesse\VIDEO_TS\VIDEO_TS.VOB
Формат : MPEG-PS
Размер файла : 912 Кбайт
Продолжительность : 520 мс.
Общий поток : 14,4 Мбит/сек
Видео
Идентификатор : 224 (0xE0)
Формат : MPEG Video
Версия формата : Version 2
Профиль формата : [email protected]
Параметр BVOP формата : Нет
Параметр матрицы формата : Выборочная
Параметр GOP формата : M=1, N=13
Продолжительность : 520 мс.
Максимальный битрейт : 7000 Кбит/сек
Ширина : 720 пикселей
Высота : 576 пикселей
Соотношение сторон : 4:3
Частота кадров : 25,000 кадров/сек
Стандарт вещания : PAL
Цветовое пространство : YUV
Субдискретизация насыщенности : 4:2:0
Битовая глубина : 8 бит
Тип развёртки : Прогрессивная
Метод сжатия : С потерями
Основные цвета : BT.470-2 System B, BT.470-2 System G
Характеристики трансфера : BT.470-2 System B, BT.470-2 System G
Коэффициенты матрицы : FCC
Текст
Идентификатор : 189 (0xBD)-32 (0x20)
Формат : RLE
Формат/Информация : Run-length encoding
Режим смешивания : DVD-Video
Меню
Общее
Полное имя : H:\torrents\Erreur de jeunesse\VIDEO_TS\VTS_01_0.BUP
Формат : DVD Video
Профиль формата : Program
Размер файла : 62,0 Кбайт
Продолжительность : 1 ч. 30 м.
Режим общего битрейта : Переменный
Общий поток : 94 бит/сек
Видео
Идентификатор : 224 (0xE0)
Формат : MPEG Video
Версия формата : Version 2
Продолжительность : 1 ч. 30 м.
Вид битрейта : Переменный
Ширина : 720 пикселей
Высота : 576 пикселей
Соотношение сторон : 4:3
Частота кадров : 25,000 кадров/сек
Стандарт вещания : PAL
Метод сжатия : С потерями
Аудио
Идентификатор : 0 (0x0)
Формат : MPEG Audio
Профиль формата : Version 1
Продолжительность : 1 ч. 30 м.
Каналы : 2 канала
Частота : 48,0 КГц
Метод сжатия : С потерями
Меню
Продолжительность : 1 ч. 30 м.
00:00:00.000 : Chapter 1
00:04:51.360 : Chapter 2
00:09:51.840 : Chapter 3
00:14:52.800 : Chapter 4
00:19:53.760 : Chapter 5
00:24:54.720 : Chapter 6
00:29:56.160 : Chapter 7
00:34:57.120 : Chapter 8
00:39:58.080 : Chapter 9
00:44:58.560 : Chapter 10
00:50:00.000 : Chapter 11
00:55:00.480 : Chapter 12
01:00:01.440 : Chapter 13
01:05:02.880 : Chapter 14
01:10:03.360 : Chapter 15
01:15:04.320 : Chapter 16
01:20:05.280 : Chapter 17
01:25:06.240 : Chapter 18
01:29:48.960 : Chapter 19
List (Audio) : 0
Общее
Полное имя : H:\torrents\Erreur de jeunesse\VIDEO_TS\VTS_01_0.IFO
Формат : DVD Video
Профиль формата : Program
Размер файла : 62,0 Кбайт
Продолжительность : 1 ч. 30 м.
Режим общего битрейта : Переменный
Общий поток : 94 бит/сек
Видео
Идентификатор : 224 (0xE0)
Формат : MPEG Video
Версия формата : Version 2
Продолжительность : 1 ч. 30 м.
Вид битрейта : Переменный
Ширина : 720 пикселей
Высота : 576 пикселей
Соотношение сторон : 4:3
Частота кадров : 25,000 кадров/сек
Стандарт вещания : PAL
Метод сжатия : С потерями
Аудио
Идентификатор : 0 (0x0)
Формат : MPEG Audio
Профиль формата : Version 1
Продолжительность : 1 ч. 30 м.
Каналы : 2 канала
Частота : 48,0 КГц
Метод сжатия : С потерями
Меню
Продолжительность : 1 ч. 30 м.
00:00:00.000 : Chapter 1
00:04:51.360 : Chapter 2
00:09:51.840 : Chapter 3
00:14:52.800 : Chapter 4
00:19:53.760 : Chapter 5
00:24:54.720 : Chapter 6
00:29:56.160 : Chapter 7
00:34:57.120 : Chapter 8
00:39:58.080 : Chapter 9
00:44:58.560 : Chapter 10
00:50:00.000 : Chapter 11
00:55:00.480 : Chapter 12
01:00:01.440 : Chapter 13
01:05:02.880 : Chapter 14
01:10:03.360 : Chapter 15
01:15:04.320 : Chapter 16
01:20:05.280 : Chapter 17
01:25:06.240 : Chapter 18
01:29:48.960 : Chapter 19
List (Audio) : 0
Общее
Полное имя : H:\torrents\Erreur de jeunesse\VIDEO_TS\VTS_01_1.VOB
Формат : MPEG-PS
Размер файла : 1024 Мбайт
Продолжительность : 31 м.
Режим общего битрейта : Переменный
Общий поток : 4503 Кбит/сек
Видео
Идентификатор : 224 (0xE0)
Формат : MPEG Video
Версия формата : Version 2
Профиль формата : [email protected]
Параметр BVOP формата : Да
Параметр матрицы формата : Выборочная
Параметр GOP формата : M=3, N=12
Продолжительность : 31 м.
Вид битрейта : Переменный
Битрейт : 4158 Кбит/сек
Максимальный битрейт : 9396 Кбит/сек
Ширина : 720 пикселей
Высота : 576 пикселей
Соотношение сторон : 4:3
Частота кадров : 25,000 кадров/сек
Стандарт вещания : PAL
Цветовое пространство : YUV
Субдискретизация насыщенности : 4:2:0
Битовая глубина : 8 бит
Тип развёртки : Чересстрочная
Порядок развёртки : Верхнее поле первое
Метод сжатия : С потерями
Бит/(Пиксели*Кадры) : 0.401
Размер потока : 945 Мбайт (92%)
Аудио
Идентификатор : 192 (0xC0)
Формат : MPEG Audio
Версия формата : Version 1
Профиль формата : Layer 2
Продолжительность : 31 м.
Вид битрейта : Постоянный
Битрейт : 256 Кбит/сек
Каналы : 2 канала
Частота : 48,0 КГц
Метод сжатия : С потерями
Задержка видео : -90 мс.
Размер потока : 58,2 Мбайт (6%)
Меню
Общее
Полное имя : H:\torrents\Erreur de jeunesse\VIDEO_TS\VTS_01_2.VOB
Формат : MPEG-PS
Размер файла : 1024 Мбайт
Продолжительность : 29 м.
Режим общего битрейта : Переменный
Общий поток : 4802 Кбит/сек
Видео
Идентификатор : 224 (0xE0)
Формат : MPEG Video
Версия формата : Version 2
Профиль формата : [email protected]
Параметр BVOP формата : Да
Параметр матрицы формата : Выборочная
Параметр GOP формата : M=3, N=12
Продолжительность : 29 м.
Вид битрейта : Переменный
Битрейт : 4451 Кбит/сек
Максимальный битрейт : 9396 Кбит/сек
Ширина : 720 пикселей
Высота : 576 пикселей
Соотношение сторон : 4:3
Частота кадров : 25,000 кадров/сек
Стандарт вещания : PAL
Цветовое пространство : YUV
Субдискретизация насыщенности : 4:2:0
Битовая глубина : 8 бит
Тип развёртки : Чересстрочная
Порядок развёртки : Верхнее поле первое
Метод сжатия : С потерями
Бит/(Пиксели*Кадры) : 0.429
Размер потока : 949 Мбайт (93%)
Аудио
Идентификатор : 192 (0xC0)
Формат : MPEG Audio
Версия формата : Version 1
Профиль формата : Layer 2
Продолжительность : 29 м.
Вид битрейта : Постоянный
Битрейт : 256 Кбит/сек
Каналы : 2 канала
Частота : 48,0 КГц
Метод сжатия : С потерями
Задержка видео : -714 мс.
Размер потока : 54,6 Мбайт (5%)
Меню
Общее
Полное имя : H:\torrents\Erreur de jeunesse\VIDEO_TS\VTS_01_3.VOB
Формат : MPEG-PS
Размер файла : 982 Мбайт
Продолжительность : 28 м.
Режим общего битрейта : Переменный
Общий поток : 4864 Кбит/сек
Видео
Идентификатор : 224 (0xE0)
Формат : MPEG Video
Версия формата : Version 2
Профиль формата : [email protected]
Параметр BVOP формата : Да
Параметр матрицы формата : Выборочная
Параметр GOP формата : M=3, N=12
Продолжительность : 28 м.
Вид битрейта : Переменный
Битрейт : 4511 Кбит/сек
Максимальный битрейт : 9396 Кбит/сек
Ширина : 720 пикселей
Высота : 576 пикселей
Соотношение сторон : 4:3
Частота кадров : 25,000 кадров/сек
Стандарт вещания : PAL
Цветовое пространство : YUV
Субдискретизация насыщенности : 4:2:0
Битовая глубина : 8 бит
Тип развёртки : Чересстрочная
Порядок развёртки : Верхнее поле первое
Метод сжатия : С потерями
Бит/(Пиксели*Кадры) : 0.435
Размер потока : 911 Мбайт (93%)
Аудио
Идентификатор : 192 (0xC0)
Формат : MPEG Audio
Версия формата : Version 1
Профиль формата : Layer 2
Продолжительность : 28 м.
Вид битрейта : Постоянный
Битрейт : 256 Кбит/сек
Каналы : 2 канала
Частота : 48,0 КГц
Метод сжатия : С потерями
Задержка видео : -330 мс.
Размер потока : 51,7 Мбайт (5%)
Меню

Скриншоты меню

Скриншот с названием

Скриншоты

If your ratio falls below 0.3, you will not be able to download Torrents! More about the rating.

[erzsebet.pl].t49013.torrent
Torrent: Registered   [ 2017-12-10 22:03 ]

Download .torrent

Download

16 KB

Status: checked
Completed: 16 times
Size: 2.96 GB
terms.php

#1

10-Dec-2017 22:00

[Profile]  [PM] 
Display posts:    

You cannot post new topics in this forum
You cannot reply to topics in this forum
You cannot edit your posts in this forum
You cannot delete your posts in this forum
You cannot vote in polls in this forum
You cannot attach files in this forum
You can download files in this forum
User agreement
For copyright holders
Advertise on this site

Скачайте на халяву через торрент на трекере erzsebet.pl

!ATTENTION!
The site does not give electronic versions of products, and is engaged only in a collecting and cataloguing of the references sent and published at a forum by our readers. If you are the legal owner of any submitted material and do not wish that the reference to it was in our catalogue, contact us and we shall immediately remove her. Files for an exchange on tracker are given by users of a site, and the administration does not bear the responsibility for their maintenance. The request to not fill in the files protected by copyrights, and also files of the illegal maintenance!