Вамп / Vamp (Ричард Уэнк / Richard Wenk) [1986, США, ужасы, комедия, HDRip] DVO

DL-List and Torrent activity
Size:  1.45 GB   |    Registered:  2 years 10 months   |    Completed:  16 times
Seeders:  2  
 
   
 
 

Max Levien ®

Longevity:
2 years 10 months
Posts:
20374

[Quote] 

Вамп / Vamp
Страна: США
Жанр: ужасы, комедия
Год выпуска: 1986
Продолжительность: 01:33:59
Перевод: Профессиональный (двухголосый закадровый)
Субтитры: нет
Оригинальная аудиодорожка: нет
Режиссер: Ричард Уэнк / Richard Wenk
В ролях: Крис Мейкпис, Сэнди Бэрон, Роберт Раслер, Диди Пфайфер, Гедде Ватанабэ, Грейс Джонс, Билли Драго
Описание: Двое друзей Кит и Эй Джей вызвались привезти стриптизершу на студенческую вечеринку. В ночном клубе «После заката» у них разбегаются глаза от изобилия подходящих кандидатур. Они не заметили ничего необычного, пока владелица заведения — соблазнительная Катрина не обнажила… свои остренькие зубки.
Доп. информация:
Видеоряд взят из этой раздачи http://erzsebet.org/forum/viewtopic.php?t=3443362, за которую благодарим *Jonathan*.
За звуковую дорожку с двухголосым переводом большое спасибо SuperDVD01.
За синхронизацию звуковой дорожки огромная благодарность JUSTKANT.
Мужские роли озвучивал Александр Клюквин.
Сэмпл: https://www.sendspace.com/file/vk71s9
Качество видео: HDRip
Формат видео: AVI
Видео: 704x384, 23.976 fps, MPEG-4 Visual, 2006 Kbps, XviD 1.2.1
Аудио: 48 KHz, AC3, 2 ch, 192 Kbps

MediaInfo

General
Complete name : C:\Users\Вамп (DVO).avi
Format : AVI
Format/Info : Audio Video Interleave
File size : 1.45 GiB
Duration : 1h 33mn
Overall bit rate : 2 208 Kbps
Writing application : VirtualDubMod 1.5.10.2 (build 2540/release)
Writing library : VirtualDubMod build 2540/release
Video
ID : 0
Format : MPEG-4 Visual
Format profile : Advanced [email protected]
Format settings, BVOP : 1
Format settings, QPel : No
Format settings, GMC : No warppoints
Format settings, Matrix : Default (MPEG)
Codec ID : XVID
Codec ID/Hint : XviD
Duration : 1h 33mn
Bit rate : 2 006 Kbps
Width : 704 pixels
Height : 384 pixels
Display aspect ratio : 1.85:1
Frame rate : 23.976 fps
Color space : YUV
Chroma subsampling : 4:2:0
Bit depth : 8 bits
Scan type : Progressive
Compression mode : Lossy
Bits/(Pixel*Frame) : 0.310
Stream size : 1.32 GiB (91%)
Writing library : XviD 1.2.1 (UTC 2008-12-04)
Audio
ID : 1
Format : AC-3
Format/Info : Audio Coding 3
Mode extension : CM (complete main)
Format settings, Endianness : Big
Codec ID : 2000
Duration : 1h 33mn
Bit rate mode : Constant
Bit rate : 192 Kbps
Channel(s) : 2 channels
Channel positions : Front: L R
Sampling rate : 48.0 KHz
Bit depth : 16 bits
Compression mode : Lossy
Stream size : 129 MiB (9%)
Alignment : Split accross interleaves
Interleave, duration : 42 ms (1.00 video frame)
Interleave, preload duration : 500 ms

Скриншоты

If your ratio falls below 0.3, you will not be able to download Torrents! More about the rating.

[erzsebet.pl].t49028.torrent
Torrent: Registered   [ 2017-12-10 22:03 ]

Download .torrent

Download

15 KB

Status: checked
Completed: 16 times
Size: 1.45 GB
terms.php

#1

10-Dec-2017 22:00

[Profile]  [PM] 
Display posts:    

You cannot post new topics in this forum
You cannot reply to topics in this forum
You cannot edit your posts in this forum
You cannot delete your posts in this forum
You cannot vote in polls in this forum
You cannot attach files in this forum
You can download files in this forum
User agreement
For copyright holders
Advertise on this site

Скачайте на халяву через торрент на трекере erzsebet.pl

!ATTENTION!
The site does not give electronic versions of products, and is engaged only in a collecting and cataloguing of the references sent and published at a forum by our readers. If you are the legal owner of any submitted material and do not wish that the reference to it was in our catalogue, contact us and we shall immediately remove her. Files for an exchange on tracker are given by users of a site, and the administration does not bear the responsibility for their maintenance. The request to not fill in the files protected by copyrights, and also files of the illegal maintenance!