Нехорошая мамаша / Big Bad Mama (Стив Карвер / Steve Carver) [1974, США, комедия, DVDRip-AVC] VO (Гундос)

DL-List and Torrent activity
Size:  1.46 GB   |    Registered:  2 years 10 months   |    Completed:  16 times
Seeders:  2  
 
   
 
 

Max Levien ®

Longevity:
2 years 10 months
Posts:
20374

[Quote] 

Нехорошая мамаша / Big Bad Mama
Страна: США
Жанр: комедия
Год выпуска: 1974
Продолжительность: 01:24:13
Перевод: Одноголосый закадровый Гундос
Субтитры: нет
Режиссер: Стив Карвер / Steve Carver
В ролях: Энджи Дикинсон, Уильям Шетнер, Том Скеррит, Сьюзэн Сеннетт, Робби Ли, Ноубл Уиллингэм, Дик Миллер, Том Сигнорелли, Джоан Пратер, Ройал Дэно
Описание: После смерти своего любовника Уилма остаётся без средств к существованию. Как раз кстати она встречает грабителя банков Фреда, который приглашает её и двух её дочерей принять участие в очередном налёте. Параллельно Уилма похищает дочь миллионера и начинает требовать выкуп...
Сэмпл: http://multi-up.com/954343
Качество видео: DVDRip-AVC
Формат видео: MKV
Видео: h264 AVC, 720х[email protected]х480, 2282 кбит/с, 23,976 fps
Аудио: AC3, 192 кбит/с, 16 бит, 2 ch, 48 КГц

MediaInfo

I:\Нехорошая мамаша\Big.Bad.Mama_1974.DVDRipAVC.mkv
General
Unique ID : 235785771286285533189949589817374125830 (0xB162B00F9A25C05C9AA06CF3A7DDAF06)
Complete name : I:\Нехорошая мамаша\Big.Bad.Mama_1974.DVDRipAVC.mkv
Format : Matroska
Format version : Version 2
File size : 1.46 GiB
Duration : 1h 24mn
Overall bit rate : 2 476 Kbps
Encoded date : UTC 2014-02-25 08:04:28
Writing application : mkvmerge v6.1.0 ('Old Devil') built on Mar 4 2013 09:10:42
Writing library : libebml v1.3.0 + libmatroska v1.4.0
Video #1
ID : 1
Format : AVC
Format/Info : Advanced Video Codec
Format profile : [email protected]
Format settings, CABAC : Yes
Format settings, ReFrames : 4 frames
Codec ID : V_MPEG4/ISO/AVC
Duration : 1h 24mn
Bit rate : 2 282 Kbps
Width : 720 pixels
Height : 480 pixels
Display aspect ratio : 16:9
Original display aspect ratio : 16:9
Frame rate mode : Constant
Frame rate : 23.976 fps
Standard : NTSC
Color space : YUV
Chroma subsampling : 4:2:0
Bit depth : 8 bits
Scan type : Progressive
Bits/(Pixel*Frame) : 0.275
Stream size : 1.31 GiB (90%)
Writing library : x264 core 130 r2273 b3065e6
Encoding settings : cabac=1 / ref=4 / deblock=1:-2:-1 / analyse=0x3:0x113 / me=umh / subme=10 / psy=1 / psy_rd=1.00:0.20 / mixed_ref=1 / me_range=32 / chroma_me=1 / trellis=2 / 8x8dct=1 / cqm=0 / deadzone=21,11 / fast_pskip=0 / chroma_qp_offset=-3 / threads=12 / lookahead_threads=1 / sliced_threads=0 / nr=0 / decimate=0 / interlaced=0 / bluray_compat=0 / constrained_intra=0 / bframes=3 / b_pyramid=2 / b_adapt=2 / b_bias=0 / direct=3 / weightb=1 / open_gop=0 / weightp=2 / keyint=250 / keyint_min=23 / scenecut=40 / intra_refresh=0 / rc_lookahead=60 / rc=2pass / mbtree=1 / bitrate=2282 / ratetol=1.0 / qcomp=0.60 / qpmin=0 / qpmax=69 / qpstep=4 / cplxblur=20.0 / qblur=0.5 / vbv_maxrate=50000 / vbv_bufsize=50000 / nal_hrd=none / ip_ratio=1.40 / aq=1:1.00
Default : Yes
Forced : No
Audio #2
ID : 2
Format : AC-3
Format/Info : Audio Coding 3
Mode extension : CM (complete main)
Format settings, Endianness : Big
Codec ID : A_AC3
Duration : 1h 24mn
Bit rate mode : Constant
Bit rate : 192 Kbps
Channel count : 2 channels
Channel positions : Front: L R
Sampling rate : 48.0 KHz
Bit depth : 16 bits
Compression mode : Lossy
Stream size : 116 MiB (8%)
Default : Yes
Forced : No

Скриншот c названием фильма

Скриншоты

If your ratio falls below 0.3, you will not be able to download Torrents! More about the rating.

[erzsebet.pl].t49029.torrent
Torrent: Registered   [ 2017-12-10 22:03 ]

Download .torrent

Download

15 KB

Status: checked
Completed: 16 times
Size: 1.46 GB
terms.php

#1

10-Dec-2017 22:00

[Profile]  [PM] 
Display posts:    

You cannot post new topics in this forum
You cannot reply to topics in this forum
You cannot edit your posts in this forum
You cannot delete your posts in this forum
You cannot vote in polls in this forum
You cannot attach files in this forum
You can download files in this forum
User agreement
For copyright holders
Advertise on this site

Скачайте на халяву через торрент на трекере erzsebet.pl

!ATTENTION!
The site does not give electronic versions of products, and is engaged only in a collecting and cataloguing of the references sent and published at a forum by our readers. If you are the legal owner of any submitted material and do not wish that the reference to it was in our catalogue, contact us and we shall immediately remove her. Files for an exchange on tracker are given by users of a site, and the administration does not bear the responsibility for their maintenance. The request to not fill in the files protected by copyrights, and also files of the illegal maintenance!