Вамп / Vamp (Ричард Уэнк / Richard Wenk) [1986, США, ужасы, комедия, HDRip] DVO

DL-List and Torrent activity
Size:  746 MB   |    Registered:  2 years 10 months   |    Completed:  16 times
Seeders:  2  
 
   
 
 

Max Levien ®

Longevity:
2 years 10 months
Posts:
20374

[Quote] 

Вамп / Vamp
Страна: США
Жанр: ужасы, комедия
Год выпуска: 1986
Продолжительность: 01:33:59
Перевод: Профессиональный (двухголосый закадровый)
Субтитры: нет
Оригинальная аудиодорожка: нет
Режиссер: Ричард Уэнк / Richard Wenk
В ролях: Крис Мейкпис, Сэнди Бэрон, Роберт Раслер, Диди Пфайфер, Гедде Ватанабэ, Грейс Джонс, Билли Драго
Описание:
Двое друзей Кит и Эй Джей вызвались привезти стриптизершу на студенческую вечеринку. В ночном клубе «После заката» у них разбегаются глаза от изобилия подходящих кандидатур. Они не заметили ничего необычного, пока владелица заведения — соблазнительная Катрина не обнажила… свои остренькие зубки.
Семпл/Все раздачи фильма
Исходник -- http://erzsebet.org/forum/viewtopic.php?t=3439576
Дорожка DVO взята из этой раздачи
Качество видео: HDRip
Формат видео: AVI
Видео: 973 Kbps, 640x352, 23.976 fps, XviD
Аудио: 128 Kbps, 48 KHz, 2 ch, MP3 Профессиональный (двухголосый закадровый)

МедиаИнфо

General
Complete name : E:\Vamp_1986.avi
Format : AVI
Format/Info : Audio Video Interleave
File size : 746 MiB
Duration : 1h 33mn
Overall bit rate : 1 110 Kbps
Writing application : VirtualDubMod 1.5.10.3 | www.virtualdub-fr.org || (build 2550/release)
Writing library : VirtualDubMod build 2550/release
Video
ID : 0
Format : MPEG-4 Visual
Format profile : Advanced [email protected]
Format settings, BVOP : Yes
Format settings, QPel : No
Format settings, GMC : No warppoints
Format settings, Matrix : Default (MPEG)
Codec ID : XVID
Codec ID/Hint : XviD
Duration : 1h 33mn
Bit rate : 973 Kbps
Width : 640 pixels
Height : 352 pixels
Display aspect ratio : 16:9
Frame rate : 23.976 fps
Resolution : 8 bits
Colorimetry : 4:2:0
Scan type : Progressive
Bits/(Pixel*Frame) : 0.180
Stream size : 654 MiB (88%)
Writing library : XviD 1.2.0.dev47 (UTC 2006-11-01)
Audio
ID : 1
Format : MPEG Audio
Format version : Version 1
Format profile : Layer 3
Mode : Joint stereo
Format_Settings_ModeExtension : MS Stereo
Codec ID : 55
Codec ID/Hint : MP3
Duration : 1h 33mn
Bit rate mode : Constant
Bit rate : 128 Kbps
Channel(s) : 2 channels
Sampling rate : 48.0 KHz
Stream size : 86.1 MiB (12%)
Alignment : Aligned on interleaves
Interleave, duration : 42 ms (1.00 video frame)
Interleave, preload duration : 504 ms
Writing library : LAME3.97

Скриншоты

If your ratio falls below 0.3, you will not be able to download Torrents! More about the rating.

[erzsebet.pl].t49030.torrent
Torrent: Registered   [ 2017-12-10 22:03 ]

Download .torrent

Download

15 KB

Status: checked
Completed: 16 times
Size: 746 MB
terms.php

#1

10-Dec-2017 22:00

[Profile]  [PM] 
Display posts:    

You cannot post new topics in this forum
You cannot reply to topics in this forum
You cannot edit your posts in this forum
You cannot delete your posts in this forum
You cannot vote in polls in this forum
You cannot attach files in this forum
You can download files in this forum
User agreement
For copyright holders
Advertise on this site

Скачайте на халяву через торрент на трекере erzsebet.pl

!ATTENTION!
The site does not give electronic versions of products, and is engaged only in a collecting and cataloguing of the references sent and published at a forum by our readers. If you are the legal owner of any submitted material and do not wish that the reference to it was in our catalogue, contact us and we shall immediately remove her. Files for an exchange on tracker are given by users of a site, and the administration does not bear the responsibility for their maintenance. The request to not fill in the files protected by copyrights, and also files of the illegal maintenance!