Легенда / Legend (Ридли Скотт / Ridley Scott) [1985, США, Великобритания, фэнтези, мелодрама, приключения, BDRip] [Ultimate Edition] AVO (Визгунов) + Original Eng

DL-List and Torrent activity
Size:  2.18 GB   |    Registered:  2 years 10 months   |    Completed:  16 times
Seeders:  6   Leechers:  1   Show peers in full details
 
   
 
 

Max Levien ®

Longevity:
2 years 10 months
Posts:
20374

[Quote] 

Легенда / LegendUltimate Edition- Страна: США, Великобритания
Жанр: фэнтези, мелодрама, приключения
Год выпуска: 1985
Продолжительность: 01:53:27-Перевод: Авторский (одноголосый закадровый) Сергей Визгунов
Субтитры: нет
Оригинальная аудиодорожка: английский-Режиссер: Ридли Скотт / Ridley Scott
В ролях: Том Круз, Миа Сара, Тим Карри, Давид Беннент, Элис Плэйтен, Билли Барти, Корк Хабберт, Питер О’Фэррелл, Киран Шах-Описание: Злые чары окутали волшебный лес фей и магов, диковинных существ и невиданных созданий. Здесь властвует зловещий Повелитель Тьмы, истребляющий неуловимых единорогов, чтобы повергнуть мир в хаос вечной ночи.
Его коварные слуги — гоблины всюду творят свои черные дела, вселяя ужас в невинных обитателей сказочной страны, и теперь только мужественный лесной странник Джек и его отважные друзья смогут избавить свой удивительный мир от жестокого властелина подземного царства мрака, где томится возлюбленная Джека, прекрасная принцесса Лили.
Дьявол пытается заполучить молодую невинную девушку. А парнишка пытается спасти Единорога, хранителя Света, от посягательств сил Зла.-Сэмпл-Качество видео: BDRip
Формат видео: AVI
Видео: 720x304 (2.37:1), 23.976 fps, XviD build 63 ~1981 kbps avg, 0.38 bit/pixel
Аудио: 48 kHz, AC3 Dolby Digital, 3/2 (L,C,R,l,r) + LFE ch, ~384 kbps
Аудио 2: 48 kHz, AC3 Dolby Digital, 3/2 (L,C,R,l,r) + LFE ch, ~384 kbps

Доп. информация

Видеоряд с раздачи kingsize87, за что спасибо.
За дорогу Визгунова спасибо Джосс и DeASS.

MediaInfo

General
Complete name : E:\Downloads\Legenda.UE.1985.BDRip.Vizgunov.avi
Format : AVI
Format/Info : Audio Video Interleave
Format profile : OpenDML
File size : 2.18 GiB
Duration : 1h 53mn
Overall bit rate : 2 756 Kbps
Movie name : Легенда / Legend [Ultimate Edition] (1985) BDRip
Director : Vиkt0R
Genre : Fantasy/Adventure/Romance
Writing application : VirtualDubMod 1.5.10.2 (build 2540/release)
Writing library : VirtualDubMod build 2540/release
Copyright : hqclub.net
Comment : R.G. HQCLUB
Video
ID : 0
Format : MPEG-4 Visual
Format profile : Advanced [email protected]
Format settings, BVOP : 1
Format settings, QPel : No
Format settings, GMC : No warppoints
Format settings, Matrix : Custom
Codec ID : XVID
Codec ID/Hint : XviD
Duration : 1h 53mn
Bit rate : 1 970 Kbps
Width : 720 pixels
Height : 304 pixels
Display aspect ratio : 2.35:1
Frame rate : 23.976 fps
Color space : YUV
Chroma subsampling : 4:2:0
Bit depth : 8 bits
Scan type : Progressive
Compression mode : Lossy
Bits/(Pixel*Frame) : 0.375
Stream size : 1.56 GiB (71%)
Writing library : XviD 63
Audio #1
ID : 1
Format : AC-3
Format/Info : Audio Coding 3
Mode extension : CM (complete main)
Format settings, Endianness : Big
Codec ID : 2000
Duration : 1h 53mn
Bit rate mode : Constant
Bit rate : 384 Kbps
Channel(s) : 6 channels
Channel positions : Front: L C R, Side: L R, LFE
Sampling rate : 48.0 KHz
Bit depth : 16 bits
Compression mode : Lossy
Stream size : 312 MiB (14%)
Alignment : Split accross interleaves
Interleave, duration : 42 ms (1.00 video frame)
Interleave, preload duration : 500 ms
Audio #2
ID : 2
Format : AC-3
Format/Info : Audio Coding 3
Mode extension : CM (complete main)
Format settings, Endianness : Big
Codec ID : 2000
Duration : 1h 53mn
Bit rate mode : Constant
Bit rate : 384 Kbps
Channel(s) : 6 channels
Channel positions : Front: L C R, Side: L R, LFE
Sampling rate : 48.0 KHz
Bit depth : 16 bits
Compression mode : Lossy
Stream size : 312 MiB (14%)
Alignment : Split accross interleaves
Interleave, duration : 42 ms (1.00 video frame)
Interleave, preload duration : 500 ms

Скриншот c названием фильма

Скриншоты

If your ratio falls below 0.3, you will not be able to download Torrents! More about the rating.

[erzsebet.pl].t49033.torrent
Torrent: Registered   [ 2017-12-10 22:03 ]

Download .torrent

Download

11 KB

Status: checked
Completed: 16 times
Size: 2.18 GB
terms.php

#1

10-Dec-2017 22:00

[Profile]  [PM] 
Display posts:    

You cannot post new topics in this forum
You cannot reply to topics in this forum
You cannot edit your posts in this forum
You cannot delete your posts in this forum
You cannot vote in polls in this forum
You cannot attach files in this forum
You can download files in this forum
User agreement
For copyright holders
Advertise on this site

Скачайте на халяву через торрент на трекере erzsebet.pl

!ATTENTION!
The site does not give electronic versions of products, and is engaged only in a collecting and cataloguing of the references sent and published at a forum by our readers. If you are the legal owner of any submitted material and do not wish that the reference to it was in our catalogue, contact us and we shall immediately remove her. Files for an exchange on tracker are given by users of a site, and the administration does not bear the responsibility for their maintenance. The request to not fill in the files protected by copyrights, and also files of the illegal maintenance!