Африканец / L'Africain (Филипп де Брока / Philippe de Broca) [1983, Франция, комедия, приключения, Telesync] [Советская прокатная копия] Dub (Ленфильм)

DL-List and Torrent activity
Size:  4.05 GB   |    Registered:  2 years 10 months   |    Completed:  16 times
Seeders:  2  
 
   
 
 

Max Levien ®

Longevity:
2 years 10 months
Posts:
20374

[Quote] 

Африканец / L'Africain [Советская прокатная копия]- Страна: Франция
Жанр: комедия, приключения
Год выпуска: 1983
Продолжительность: 01:29:18-Перевод: Профессиональный (дублированный) - Киностудия "Ленфильм"
Субтитры: нет-Режиссер: Филипп де Брока / Philippe de Broca
В ролях: Катрин Денёв, Филипп Нуаре, Жан-Франсуа Бальмер, Жак Франсуа, Жан Бенгиги, Жозеф Момо, Вивиан Рид, Пьер Майкл, Гордон Хит, Рэймонд Акилон- | Релиз: -Описание: Фильм снят в экзотических местах Африки, куда прилетает героиня фильма, чтобы изучить возможность строительства отеля для туристов. Там она встречает своего мужа, летчика, охраняющего заповедник от браконьеров.
Они расстались несколько лет назад, но так и не смогли забыть друг друга. Он делает все возможное, чтобы воспрепятствовать уничтожению этого нетронутого уголка природы. Нешуточное столкновение интересов, забавные приключения и настоящая опасность возрождают старую любовь с новой силой.-Семпл: http://sendfile.su/1260157-Тип релиза: Telesync
Контейнер: MPG
Видео: 720x576 (4:3) @ 768x576, 25.000 fps, MPEG-2 Video, ~6111 Kbps, 0.589 bits/pixel
Аудио: Русский, 48.0 KHz, AC3, 2 ch, 256 Kbps

MediaInfo

General
Complete name : Африканец 1983 Dub Ленфильм.mpg
Format : MPEG-PS
File size : 4.05 GiB
Duration : 1 h 29 min
Overall bit rate mode : Variable
Overall bit rate : 6 496 kb/s
Video
ID : 224 (0xE0)
Format : MPEG Video
Format version : Version 2
Format profile : [email protected]
Format settings, BVOP : Yes
Format settings, Matrix : Default
Format settings, GOP : Variable
Format settings, picture structure : Frame
Duration : 1 h 29 min
Bit rate mode : Variable
Bit rate : 6 111 kb/s
Maximum bit rate : 9 400 kb/s
Width : 720 pixels
Height : 576 pixels
Display aspect ratio : 4:3
Frame rate : 25.000 FPS
Standard : PAL
Color space : YUV
Chroma subsampling : 4:2:0
Bit depth : 8 bits
Scan type : Interlaced
Scan order : Top Field First
Compression mode : Lossy
Bits/(Pixel*Frame) : 0.589
Time code of first frame : 00:00:00:00
Time code source : Group of pictures header
Stream size : 3.81 GiB (94%)
Color primaries : BT.601 PAL
Transfer characteristics : BT.470 System B, BT.470 System G
Matrix coefficients : BT.601
Audio
ID : 189 (0xBD)-128 (0x80)
Format : AC-3
Format/Info : Audio Coding 3
Mode extension : CM (complete main)
Format settings, Endianness : Big
Muxing mode : DVD-Video
Duration : 1 h 29 min
Bit rate mode : Constant
Bit rate : 256 kb/s
Channel(s) : 2 channels
Channel positions : Front: L R
Sampling rate : 48.0 kHz
Frame rate : 31.250 FPS (1536 spf)
Compression mode : Lossy
Stream size : 164 MiB (4%)

If your ratio falls below 0.3, you will not be able to download Torrents! More about the rating.

[erzsebet.pl].t49034.torrent
Torrent: Registered   [ 2017-12-10 22:03 ]

Download .torrent

Download

21 KB

Status: checked
Completed: 16 times
Size: 4.05 GB
terms.php

#1

10-Dec-2017 22:00

[Profile]  [PM] 
Display posts:    

You cannot post new topics in this forum
You cannot reply to topics in this forum
You cannot edit your posts in this forum
You cannot delete your posts in this forum
You cannot vote in polls in this forum
You cannot attach files in this forum
You can download files in this forum
User agreement
For copyright holders
Advertise on this site

Скачайте на халяву через торрент на трекере erzsebet.pl

!ATTENTION!
The site does not give electronic versions of products, and is engaged only in a collecting and cataloguing of the references sent and published at a forum by our readers. If you are the legal owner of any submitted material and do not wish that the reference to it was in our catalogue, contact us and we shall immediately remove her. Files for an exchange on tracker are given by users of a site, and the administration does not bear the responsibility for their maintenance. The request to not fill in the files protected by copyrights, and also files of the illegal maintenance!