Воспламеняющая взглядом / Порождающая огонь / Firestarter (Марк Л. Лестер / Mark L. Lester) [1984, США, Фантастика, триллер, DVDRip-AVC]

DL-List and Torrent activity
Size:  1.27 GB   |    Registered:  2 years 10 months   |    Completed:  16 times
Seeders:  3  
 
   
 
 

Max Levien ®

Longevity:
2 years 10 months
Posts:
20374

[Quote] 

Воспламеняющая взглядом (Порождающая огонь) / Firestarter
Год выпуска: 1984
Страна: США
Жанр: Фантастика, триллер
Продолжительность: 01:49:32
Перевод: Профессиональный (многоголосый, закадровый)
Русские субтитры: нет
Режиссер: Марк Л. Лестер / Mark L. Lester
В ролях: Дэвид Кит, Дрю Бэрримор, Фредди Джоунс, Хезер Локлир, Мартин Шин, Джордж С. Скотт, Арт Карни, Луиз Флетчер, Моузес Ганн, Антонио Фаргас
Описание:
Экранизация одноименной повести Стивена Кинга о маленькой девочке, обладающей даром воспламенять предметы взглядом.
Чарли Макги кажется обычной счастливой девочкой восьми лет, пока что-нибудь не разозлит ее или не начнет угрожать ее семье. Тогда Чарли меняется: проявляется ее унаследованная от родителей смертоносная способность — зажигать взглядом все, что она пожелает.
Чарли не всегда может контролировать свою силу и, возможно, когда она вырастет ее могущество будет опасно для всей планеты. Спецслужбы хотят использовать девочку и похищают ее, убивая при этом маму Чарли. Они хотят контролировать девочку… или уничтожить. Ее отец не в силах спасти дочку, но Чарли сумеет позаботиться о себе сама.
Что касается самого фильма, то хочется поблагодарить создателей за качественную работу. Можно отметить излишнюю насыщенность спецэффектами, но в данном случае их, возможно, требует сценарий.
Доп. информация: Игра ребёнка на уровне взрослых (а то и выше). Не зря она в свое время была юной любимицей Америки. Здесь есть всё — интрига, триллер, погони, убийства… А в основе сюжета — судьба человека (маленькой девочки), который родился не таким, как все.
Kinopoisk
IMDB
Сэмпл
Качество: DVDRip
Исходник: DVD5
Формат: MKV
Видеокодек: x264
Аудиокодек: AC3
Видео: 720x432 => 1024x432 (2.35); 1280 Kbps; 25.000fps; 0.161bpp
Аудио №1: AC3, 2/0 (L,R) ch, 192 Kbps; Russian
Аудио №2: AC3, 2/0 (L,R) ch, 192 Kbps; English
Субтитры: English; UTF-8

Скриншоты

MediaInfo

Код:General
Complete name : E:\Video\Films\Firestarter.1984.DVDRip-AVC.Taran2L.[erzsebet.org].mkv
Format : Matroska
File size : 1.27 GiB
Duration : 1h 49mn
Overall bit rate : 1 666 Kbps
Movie name : Воспламеняющая взглядом (Порождающая огонь) / Firestarter [1984]
Encoded date : UTC 2010-04-30 08:52:34
Writing application : mkvmerge v3.3.0 ('Language') built on Mar 24 2010 14:59:24
Writing library : libebml v0.8.0 + libmatroska v0.9.0
Cover : Yes
Video
ID : 1
Format : AVC
Format/Info : Advanced Video Codec
Format profile : [email protected]
Format settings, CABAC : Yes
Format settings, ReFrames : 11 frames
Muxing mode : Container [email protected]
Codec ID : V_MPEG4/ISO/AVC
Duration : 1h 49mn
Bit rate : 1 248 Kbps
Nominal bit rate : 1 280 Kbps
Width : 720 pixels
Height : 432 pixels
Display aspect ratio : 2.35:1
Frame rate : 25.000 fps
Resolution : 8 bits
Colorimetry : 4:2:0
Scan type : Progressive
Bits/(Pixel*Frame) : 0.161
Stream size : 978 MiB (75%)
Title : Taran2L
Writing library : x264 core 94 r1564 a927654
Encoding settings : cabac=1 / ref=11 / deblock=1:-1:0 / analyse=0x3:0x133 / me=umh / subme=10 / psy=1 / psy_rd=0.45:0.35 / mixed_ref=1 / me_range=24 / chroma_me=1 / trellis=2 / 8x8dct=1 / cqm=0 / deadzone=21,11 / fast_pskip=0 / chroma_qp_offset=-4 / threads=2 / sliced_threads=0 / nr=0 / decimate=1 / interlaced=0 / constrained_intra=0 / bframes=8 / b_pyramid=2 / b_adapt=2 / b_bias=0 / direct=3 / wpredb=1 / wpredp=2 / keyint=250 / keyint_min=25 / scenecut=40 / intra_refresh=0 / rc_lookahead=60 / rc=2pass / mbtree=1 / bitrate=1280 / ratetol=1.0 / qcomp=0.60 / qpmin=10 / qpmax=51 / qpstep=4 / cplxblur=20.0 / qblur=0.5 / ip_ratio=1.40 / aq=1:1.00
Language : English
Matrix coefficients : BT.470-6 System B, BT.470-6 System G, BT.601-6 625, BT.1358 625, BT.1700 625 PAL, BT.1700 625 SECAM, IEC 61966-2-4 601
Audio #1
ID : 2
Format : AC-3
Format/Info : Audio Coding 3
Format_Settings_ModeExtension : CM (complete main)
Codec ID : A_AC3
Duration : 1h 49mn
Bit rate mode : Constant
Bit rate : 192 Kbps
Channel(s) : 2 channels
Channel positions : Front: L R
Sampling rate : 48.0 KHz
Stream size : 150 MiB (12%)
Title : ТВ-3
Language : Russian
Audio #2
ID : 3
Format : AC-3
Format/Info : Audio Coding 3
Format_Settings_ModeExtension : CM (complete main)
Codec ID : A_AC3
Duration : 1h 49mn
Bit rate mode : Constant
Bit rate : 192 Kbps
Channel(s) : 2 channels
Channel positions : Front: L R
Sampling rate : 48.0 KHz
Stream size : 150 MiB (12%)
Language : English
Text
ID : 4
Format : UTF-8
Codec ID : S_TEXT/UTF8
Codec ID/Info : UTF-8 Plain Text
Language : English

x264 Log

Код:avs [info]: 720x432p 64:45 @ 25/1 fps (cfr)
x264 [info]: using SAR=64/45
x264 [info]: using cpu capabilities: MMX2 SSE2Fast SSSE3 Cache64
x264 [info]: profile High, level 3.1
x264 [info]: frame I:1477 Avg QP:17.65 size: 49091 PSNR Mean Y:47.06 U:51.12 V:51.82 Avg:48.06 Global:47.76
x264 [info]: frame P:34252 Avg QP:20.11 size: 17689 PSNR Mean Y:44.85 U:49.30 V:50.09 Avg:45.87 Global:45.11
x264 [info]: frame B:128593 Avg QP:23.92 size: 2899 PSNR Mean Y:43.12 U:48.42 V:49.34 Avg:44.26 Global:43.93
x264 [info]: consecutive B-frames: 1.2% 1.7% 7.7% 13.9% 13.0% 57.8% 3.6% 0.6% 0.4%
x264 [info]: mb I I16..4: 5.6% 85.5% 8.9%
x264 [info]: mb P I16..4: 1.2% 13.3% 1.2% P16..4: 42.8% 22.6% 11.0% 0.7% 1.4% skip: 5.8%
x264 [info]: mb B I16..4: 0.1% 1.3% 0.1% B16..8: 30.1% 7.5% 1.4% direct: 4.2% skip:55.2% L0:37.2% L1:43.0% BI:19.8%
x264 [info]: 8x8 transform intra:84.8% inter:65.1%
x264 [info]: direct mvs spatial:99.3% temporal:0.7%
x264 [info]: coded y,uvDC,uvAC intra: 88.5% 87.6% 58.1% inter: 18.8% 22.4% 4.0%
x264 [info]: i16 v,h,dc,p: 28% 8% 13% 51%
x264 [info]: i8 v,h,dc,ddl,ddr,vr,hd,vl,hu: 21% 9% 14% 7% 9% 11% 8% 11% 10%
x264 [info]: i4 v,h,dc,ddl,ddr,vr,hd,vl,hu: 20% 9% 6% 8% 12% 14% 10% 11% 9%
x264 [info]: i8c dc,h,v,p: 38% 19% 28% 15%
x264 [info]: Weighted P-Frames: Y:7.6%
x264 [info]: ref P L0: 41.5% 17.3% 17.7% 7.6% 5.0% 3.6% 2.8% 1.5% 1.2% 0.9% 0.7% 0.1% 0.0%
x264 [info]: ref B L0: 77.5% 13.7% 3.7% 1.7% 1.2% 0.9% 0.7% 0.4% 0.2% 0.1%
x264 [info]: ref B L1: 95.8% 4.2%
x264 [info]: SSIM Mean Y:0.9794943
x264 [info]: PSNR Mean Y:43.515 U:48.629 V:49.521 Avg:44.633 Global:44.177 kb/s:1279.39
encoded 164322 frames, 6.59 fps, 1279.39 kb/s

If your ratio falls below 0.3, you will not be able to download Torrents! More about the rating.

[erzsebet.pl].t49038.torrent
Torrent: Registered   [ 2017-12-10 22:03 ]

Download .torrent

Download

7 KB

Status: checked
Completed: 16 times
Size: 1.27 GB
terms.php

#1

10-Dec-2017 21:59

[Profile]  [PM] 
Display posts:    

You cannot post new topics in this forum
You cannot reply to topics in this forum
You cannot edit your posts in this forum
You cannot delete your posts in this forum
You cannot vote in polls in this forum
You cannot attach files in this forum
You can download files in this forum
User agreement
For copyright holders
Advertise on this site

Скачайте на халяву через торрент на трекере erzsebet.pl

!ATTENTION!
The site does not give electronic versions of products, and is engaged only in a collecting and cataloguing of the references sent and published at a forum by our readers. If you are the legal owner of any submitted material and do not wish that the reference to it was in our catalogue, contact us and we shall immediately remove her. Files for an exchange on tracker are given by users of a site, and the administration does not bear the responsibility for their maintenance. The request to not fill in the files protected by copyrights, and also files of the illegal maintenance!