Прекрасные времена в Шпессарте / Herrliche Zeiten im Spessart / Glorious Times in the Spessart (Курт Хоффманн / Kurt Hoffmann) [1967, ФРГ, комедия, приключения, BDRip] Dub

Reply to topic
DL-List and Torrent activity
Size:  1.36 GB   |    Registered:  3 years 1 month   |    Completed:  16 times

Seeder not seen: Never

 
   
 
 
Author Message

erzsebet.org ®

Longevity: 3 years 1 month

Posts: 47596

Post 02-Dec-2017 16:55

[Quote]

Прекрасные времена в Шпессарте / Herrliche Zeiten im Spessart / Glorious Times in the Spessart
Страна: ФРГ
Жанр: комедия, приключения
Год выпуска: 1967
Продолжительность: 01:40:47
Перевод: Профессиональный (дублированный)
Субтитры: нет
Режиссер: Курт Хоффманн / Kurt Hoffmann
В ролях: Лизелотте Пульвер, Карлос Томпсон, Рудольф Фогель, Гюнтер Людерс, Клаус Шварцкопф, Ганс Рихтер, Харальд Лайпниц, Виви Бах, Ханнелоре Эльснер
Описание: Третий кинофильм трилогии пародийных комедий о привидениях. Фильм рассказывает о событиях, случившихся в отеле "Шпессарт", где его хозяйка Анна-Луиза Зандау ведет подготовку к свадьбе с американским офицером Фрэнком Грином...
Сэмпл: http://multi-up.com/1162777
Качество видео: BDRip (Исходник Herrliche Zeiten im Spessart by D_I_A_B_L_O.mkv / KinoZal / ice006)
Формат видео: AVI
Видео: XviD 73, 704x416, (5:3), 25,000 fps, 1798 Кбит/с, 8 бит, 0.25 bit/pixel
Аудио: Русский (MP3, 1 ch, 48,0 KHz, 128 Kbps)

MediaInfo

Общее
Полное имя : F:\Видеофильмы\В и д е о\Прекрасные времена в Шпессарте (комедия 1967 год).avi
Формат : AVI
Формат/Информация : Audio Video Interleave
Размер файла : 1,36 Гбайт
Продолжительность : 1 ч. 40 м.
Общий поток : 1936 Кбит/сек
Программа кодирования : VirtualDubMod 1.5.10.3 | www.virtualdub-fr.org || (build 2550/release)
Библиотека кодирования : VirtualDubMod build 2550/release
Видео
Идентификатор : 0
Формат : MPEG-4 Visual
Профиль формата : Advanced [email protected]
Параметр BVOP формата : 2
Параметр QPel формата : Нет
Параметр GMC формата : Без точки перехода
Параметр матрицы формата : Выборочная
Идентификатор кодека : XVID
Идентификатор кодека/Подсказка : XviD
Продолжительность : 1 ч. 40 м.
Битрейт : 1798 Кбит/сек
Ширина : 704 пикселя
Высота : 416 пикселей
Соотношение сторон : 5:3
Частота кадров : 25,000 кадров/сек
Цветовое пространство : YUV
Субдискретизация насыщенности : 4:2:0
Битовая глубина : 8 бит
Тип развёртки : Прогрессивная
Метод сжатия : С потерями
Бит/(Пиксели*Кадры) : 0.246
Размер потока : 1,27 Гбайт (93%)
Библиотека кодирования : XviD 73
Аудио
Идентификатор : 1
Формат : MPEG Audio
Версия формата : Version 1
Профиль формата : Layer 3
Идентификатор кодека : 55
Идентификатор кодека/Подсказка : MP3
Продолжительность : 1 ч. 40 м.
Вид битрейта : Постоянный
Битрейт : 128 Кбит/сек
Каналы : 1 канал
Частота : 48,0 КГц
Метод сжатия : С потерями
Размер потока : 92,2 Мбайт (7%)
Выравнивание : Соединение по промежуткам
Продолжительность промежутка : 40 мс. (1,00 видеокадр)
Время предзагрузки промежутка : 504 мс.
Библиотека кодирования : LAME3.99r
Настройки программы : -m m -V 4 -q 2 -lowpass 20.5 -b 128

Скриншот c названием фильма

Скриншоты

If your ratio falls below 0.3, you will not be able to download Torrents! More about the rating.

[erzsebet.pl].t493.torrent
Torrent: Registered [ 2017-12-02 16:56 ] · 356987156BAFE3C91B375DF8B8F370DD50213CFF

Download .torrent

Download

14 KB

Status: checked
Completed: 16 times
Size: 1.36 GB
terms.php
[Profile] [PM]
Display posts:    
Reply to topic

Current time is: 22-Jan 21:47

All times are UTC ± 0



You cannot post new topics in this forum
You cannot reply to topics in this forum
You cannot edit your posts in this forum
You cannot delete your posts in this forum
You cannot vote in polls in this forum
You cannot attach files in this forum
You can download files in this forum