Ромео и Джульетта / Romeo and Juliet (Франко Дзеффирелли / Franco Zeffirelli) [1968, Великобритания, Италия, драма, мелодрама, BDRip] MVO (Россия) + MVO (Интер)

Reply to topic
DL-List and Torrent activity
Size:  2.18 GB   |    Registered:  3 years 1 month   |    Completed:  16 times

Seeder not seen: Never

 
   
 
 
Author Message

erzsebet.org ®

Longevity: 3 years 1 month

Posts: 47596

Post 02-Dec-2017 16:55

[Quote]

Ромео и Джульетта / Romeo and Juliet-Ромео: это имя-гибель для неё - так говорили.
Любовь не останавливают стены - писал Шекспир.
Но не было судьбы грустней на свете, чем выпало Ромео и Джульетте.
- Год выпуска: 1968
Страна: Великобритания, Италия
Жанр: драма, мелодрама
Продолжительность: 02:18:19
Перевод: Профессиональный (многоголосый закадровый) - Россия
Перевод 2: Профессиональный (многоголосый закадровый) - Интер
Субтитры: нет
Режиссер: Франко Дзеффирелли / Franco Zeffirelli
В ролях: Леонард Уайтинг (Romeo), Оливия Хасси (Juliet), Джон МакИнери (Mercutio), Майло О'Ши (Friar Laurence), Пэт Хейвуд (The Nurse), Роберт Стивенс (The Prince), Майкл Йорк (Tybalt), Брюс Робинсон (Benvolio), Пол Хардвик (Lord Capulet), Наташа Парри (Lady Capulet)-Мировая премьера: 4 марта 1968-Описание: На балу во дворце Капулетти зарождается любовь двух юных существ, судьбою обреченных на ненависть. Ромео Монтекки и Джульетта Капулетти полюбили друг друга на свою беду, ведь их семьи ведут смертельную вражду уже многие, многие годы… Но их любовь сильнее родовой вражды, сильнее предрассудков и непреодолимых препятствий. Великая сила этой любви побеждает все, даже смерть…-Огромная благодарность:
kingsize87 - исходник видео.
RockNIK - собственная запись перевода с телеканала Россия через видеомагнитофон и оцифровка с видеокассеты.
JUSTKANT - синхронизация перевода.
Tanat13 - украинский перевод Интер с Гуртома.-Русский перевод на трекере появляется впервые.
На русский язык фильм озвучен по заказу телеканала Россия в 2002 году.
Текст читают Илья Бледный, Ольга Сирина, Виктор Петров, Нина Лунёва и Александр Груздев-
Рейтинг

MPAA: R - Лицам до 17 лет обязательно присутствие взрослого.-Качество видео: BDRip
Формат видео: AVI -> //Сэмпл//
Видео: XviD, 704x384 (1.85:1), 23.976 fps, 1854 kbps
Аудио:
1 - 48 khz, AC3 Dolby Digital, 2/0 (L,R) ch, ~192 kbps [Россия] VHSRip-ТВ
2 - 48 khz, AC3 Dolby Digital, 2/0 (L,R) ch, ~192 kbps [Интер] TVRip

MediaInfo

General
Complete name : D:\Ромео и Джульетта (Россия + Интер).avi
Format : AVI
Format/Info : Audio Video Interleave
Format profile : OpenDML
File size : 2.18 GiB
Duration : 2 h 18 min
Overall bit rate : 2 256 kb/s
Movie name : Ромео и Джульетта / Romeo and Juliet (Россия + Интер)
Director : JUSTKANT
Writing application : VirtualDubModRus 1.5.10.2 (build 2542/release)
Copyright : На русский язык фильм озвучен по заказу телеканала "Россия" в 2002 году
Comment : Качество звука: Россия - VHSRip-ТВ (RockNIK) и Интер - TVRip (Tanat13)
Video
ID : 0
Format : MPEG-4 Visual
Format profile : Advanced [email protected]
Format settings, BVOP : 1
Format settings, QPel : No
Format settings, GMC : No warppoints
Format settings, Matrix : Custom
Codec ID : XVID
Codec ID/Hint : XviD
Duration : 2 h 18 min
Bit rate : 1 854 kb/s
Width : 704 pixels
Height : 384 pixels
Display aspect ratio : 1.85:1
Frame rate : 23.976 (24000/1001) FPS
Color space : YUV
Chroma subsampling : 4:2:0
Bit depth : 8 bits
Scan type : Progressive
Compression mode : Lossy
Bits/(Pixel*Frame) : 0.286
Stream size : 1.79 GiB (82%)
Writing library : XviD 65
Audio #1
ID : 1
Format : AC-3
Format/Info : Audio Coding 3
Format settings, Endianness : Big
Codec ID : 2000
Duration : 2 h 18 min
Bit rate mode : Constant
Bit rate : 192 kb/s
Channel(s) : 2 channels
Channel positions : Front: L R
Sampling rate : 48.0 kHz
Frame rate : 31.250 FPS (1536 SPF)
Bit depth : 16 bits
Compression mode : Lossy
Stream size : 190 MiB (9%)
Alignment : Split accross interleaves
Interleave, duration : 42 ms (1.00 video frame)
Interleave, preload duratio : 500 ms
Title : Россия: Илья Бледный, Ольга Сирина, Виктор Петров, Нина Лунёва и Александр Груздев
Service kind : Complete Main
Audio #2
ID : 2
Format : AC-3
Format/Info : Audio Coding 3
Format settings, Endianness : Big
Codec ID : 2000
Duration : 2 h 18 min
Bit rate mode : Constant
Bit rate : 192 kb/s
Channel(s) : 2 channels
Channel positions : Front: L R
Sampling rate : 48.0 kHz
Frame rate : 31.250 FPS (1536 SPF)
Bit depth : 16 bits
Compression mode : Lossy
Stream size : 190 MiB (9%)
Alignment : Split accross interleaves
Interleave, duration : 42 ms (1.00 video frame)
Interleave, preload duratio : 500 ms
Title : Интер: Андрій Твердак, Олесь Гімбаржевський, Ніна Касторф і Інна Капінос
Service kind : Complete Main

Скриншот c названием фильма

Скриншоты

If your ratio falls below 0.3, you will not be able to download Torrents! More about the rating.

[erzsebet.pl].t496.torrent
Torrent: Registered [ 2017-12-02 16:56 ] · 05C7A26C93F2F5AB09F067612284849420D79FFE

Download .torrent

Download

12 KB

Status: checked
Completed: 16 times
Size: 2.18 GB
terms.php
[Profile] [PM]
Display posts:    
Reply to topic

Current time is: 22-Jan 22:32

All times are UTC ± 0



You cannot post new topics in this forum
You cannot reply to topics in this forum
You cannot edit your posts in this forum
You cannot delete your posts in this forum
You cannot vote in polls in this forum
You cannot attach files in this forum
You can download files in this forum