Siren's Kiss / Поцелуй сирен (Эдвард Холцман / Edward Holzman) [1995, США, драма, эротика, DVDRip] DVO (Ракурс) + Original Eng

Reply to topic
DL-List and Torrent activity
Size:  1.22 GB   |    Registered:  3 years 1 month   |    Completed:  16 times

Seeder not seen: Never

 
   
 
 
Author Message

erzsebet.org ®

Longevity: 3 years 1 month

Posts: 47596

Post 02-Dec-2017 15:58

[Quote]

Siren's Kiss / Поцелуй сирен
Страна: США
Жанр: драма, эротика
Год выпуска: 1995
Продолжительность: 01:30:31
Перевод: Профессиональный (двухголосый закадровый) Ракурс по заказу Екатеринбург Арт
Субтитры: нет
Оригинальная аудиодорожка: английский
Режиссер: Эдвард Холцман / Edward Holzman
В ролях: Бобби Джонстон, Дикси Бек, Кристен Найтл, Катрин Вебер, Роберт Л. Ньюман, Эдвард Холцман, Сигел Скай, Келли Джэй, Тереза Полити, Чет Трип...
Описание: Лео Кесслер, некогда знаменитый художник, потерял страсть к рисованию. Жена Карен, на протяжении многих лет бывшая его музой, больше не вдохновляет Лео. Его семейная жизнь — на грани разрыва, а талант усыхает точно так же, как кисти и краски.
Когда Карен отправляется в деловую поездку, Лео пытается обрести новые силы. В местной студенческой газете он помещает объявление о том, что ему нужны две натурщицы. На заметку откликаются робкая и нежная Бет и дикая и необузданная Клер.
Втроем они проводят целую неделю, щедро делясь друг с другом самыми сокровенными мыслями и самыми интимными сексуальными фантазиями. Перенося эти фантазии на полотно, Лео постепенно восстанавливает ту страстность, которая сделала его одним из самых известных в мире художников.
Доп. информация: Оцифровка перевода Ракурс - RoxMarty. Синхронизация звука - Dreven.
Сэмпл: http://sendfile.su/1381825
Качество видео: DVDRip
Формат видео: AVI
Видео: 624x480 (1.30:1), 25 fps, XviD build 50 ~1598 kbps avg, 0.21 bit/pixel
Аудио 1: 48 kHz, AC3 Dolby Digital, 2/0 (L,R) ch, ~192 kbps - Ракурс
Аудио 2: 48 kHz, AC3 Dolby Digital, 2/0 (L,R) ch, ~128 kbps Eng

MediaInfo

General
Complete name : C:\Siren's Kiss.avi
Format : AVI
Format/Info : Audio Video Interleave
File size : 1.22 GiB
Duration : 1 h 30 min
Overall bit rate : 1 934 kb/s
Writing application : VirtualDubMod 1.5.10.3 (build 2550/release)
Writing library : VirtualDubMod build 2550/release
Video
ID : 0
Format : MPEG-4 Visual
Format profile : [email protected]
Format settings, BVOP : No
Format settings, QPel : No
Format settings, GMC : No warppoints
Format settings, Matrix : Default (H.263)
Codec ID : XVID
Codec ID/Hint : XviD
Duration : 1 h 30 min
Bit rate : 1 600 kb/s
Width : 624 pixels
Height : 480 pixels
Display aspect ratio : 4:3
Frame rate : 25.000 FPS
Color space : YUV
Chroma subsampling : 4:2:0
Bit depth : 8 bits
Scan type : Progressive
Compression mode : Lossy
Bits/(Pixel*Frame) : 0.214
Stream size : 1.01 GiB (83%)
Writing library : XviD 1.2.1 (UTC 2008-12-04)
Audio #1
ID : 1
Format : AC-3
Format/Info : Audio Coding 3
Codec ID : 2000
Duration : 1 h 30 min
Bit rate mode : Constant
Bit rate : 192 kb/s
Channel(s) : 2 channels
Channel positions : Front: L R
Sampling rate : 48.0 kHz
Frame rate : 31.250 FPS (1536 SPF)
Bit depth : 16 bits
Compression mode : Lossy
Stream size : 124 MiB (10%)
Alignment : Split accross interleaves
Interleave, duration : 40 ms (1.00 video frame)
Interleave, preload duratio : 500 ms
Title : Ракурс
Service kind : Complete Main
Audio #2
ID : 2
Format : AC-3
Format/Info : Audio Coding 3
Codec ID : 2000
Duration : 1 h 30 min
Bit rate mode : Constant
Bit rate : 128 kb/s
Channel(s) : 2 channels
Channel positions : Front: L R
Sampling rate : 48.0 kHz
Frame rate : 31.250 FPS (1536 SPF)
Bit depth : 16 bits
Compression mode : Lossy
Stream size : 82.8 MiB (7%)
Alignment : Split accross interleaves
Interleave, duration : 40 ms (1.00 video frame)
Interleave, preload duratio : 500 ms
Service kind : Complete Main

Скриншоты

If your ratio falls below 0.3, you will not be able to download Torrents! More about the rating.

[erzsebet.pl].t5.torrent
Torrent: Registered [ 2017-12-02 15:58 ] · E631E29B803E1192FEB7012D3E11E588E48928A6

Download .torrent

Download

13 KB

Status: checked
Completed: 16 times
Size: 1.22 GB
terms.php
[Profile] [PM]
Display posts:    
Reply to topic

Current time is: 17-Jan 03:30

All times are UTC ± 0



You cannot post new topics in this forum
You cannot reply to topics in this forum
You cannot edit your posts in this forum
You cannot delete your posts in this forum
You cannot vote in polls in this forum
You cannot attach files in this forum
You can download files in this forum