Якудза / The Yakuza (Сидни Поллак / Sidney Pollack) [1974, США, Япония, боевик, триллер, драма, криминал, BDRip] MVO (Россия) + DVO (НТВ)

Reply to topic
DL-List and Torrent activity
Size:  1.46 GB   |    Registered:  3 years 1 month   |    Completed:  16 times

Seeder not seen: Never

 
   
 
 
Author Message

erzsebet.org ®

Longevity: 3 years 1 month

Posts: 47596

Post 02-Dec-2017 16:55

[Quote]

Якудза / The Yakuza
Год выпуска: 1974
Страна: США, Япония
Жанр: боевик, триллер, драма, криминал
Продолжительность: 01:52:13
Перевод: Профессиональный (многоголосый закадровый) - Россия
Перевод 2: Профессиональный (двухголосый закадровый) - НТВ
Субтитры: нет
Режиссер: Сидни Поллак / Sidney Pollack
В ролях: Роберт Митчум (Harry Kilmer), Кэн Такакура (Tanaka Ken), Брайан Кит (George Tanner), Херб Эдельман (Wheat), Ричард Джордан (Dusty), Кэйко Киси (Eiko), Эйдзи Окада (Tono), Джеймс Шигета (Goro), Кёскэ Машида (Kato), Кристина Кокубо (Hanako)-Мировая премьера: 28 декабря 1974-Описание: Якудза — это мафия, родившаяся 350 лет назад в Японии, стране, где восходит солнце. О якудзе известно только то, что проникший в ее тайны — обречен. На след якудза вышел американский сыщик, занимающийся делом о похищении дочери миллионера…-Огромная благодарность:
Kasparas77 - исходник видео.
pasific2013 - собственная запись перевода с телеканала Россия через видеомагнитофон и оцифровка с видеокассеты.
Kino-profan - собственная запись перевода с телеканала НТВ через видеомагнитофон и оцифровка с видеокассеты.
JUSTKANT - синхронизация переводов.-Данные переводы на трекере появляются впервые.
На русский язык фильм озвучен по заказу телеканала Россия в 2004 году.
Текст читают Андрей Казанцев, Борис Токарев + ???
На русский язык фильм озвучен телекомпанией НТВ.
Мужские роли озвучивает Борис Токарев.-
Рейтинг

MPAA: R - Лицам до 17 лет обязательно присутствие взрослого.-Качество видео: BDRip
Формат видео: AVI -> //Сэмпл//
Видео: XviD, 720x304 (2.35:1), 23.976 fps, 1573 kbps avg
Аудио:
1 - 48 khz, AC3 Dolby Digital, 2/0 (L,R) ch, ~192 kbps [Россия] VHSRip-ТВ
2 - 48 khz, AC3 Dolby Digital, 2/0 (L,R) ch, ~192 kbps [НТВ] VHSRip-ТВ-ОБНОВЛЕНИЕ РЕЛИЗА 24.07.2017
Заменён видеоряд
Добавлен в раздачу ещё один раритетный перевод с телеканала Россия

Просьба перескачать торрент!

Сравнение скриншотов

WEB-DLRip - http://screenshotcomparison.com/comparison/216669

Информация о переводе НТВ

В переводе есть 12 вставок перевода из трекера в пропущенных во время записи фильма с ТВ эпизодах.

MediaInfo

General
Complete name : D:\Якудза (Россия + НТВ).avi
Format : AVI
Format/Info : Audio Video Interleave
File size : 1.46 GiB
Duration : 1 h 52 min
Overall bit rate : 1 862 kb/s
Movie name : Якудза / The Yakuza (Россия + НТВ)
Director : JUSTKANT
Writing application : VirtualDubModRus 1.5.10.2 (build 2542/release)
Writing library : VirtualDubMod build 2542/release
Copyright : На русский язык фильм озвучен по заказу телеканала "Россия" в 2004 году
Comment : Качество звука: Россия - VHSRipТВ (pasific2013) и НТВ - VHSRipТВ (Kino-profan)
Video
ID : 0
Format : MPEG-4 Visual
Format profile : Advanced [email protected]
Format settings, BVOP : 1
Format settings, QPel : No
Format settings, GMC : No warppoints
Format settings, Matrix : Custom
Codec ID : XVID
Codec ID/Hint : XviD
Duration : 1 h 52 min
Bit rate : 1 464 kb/s
Width : 720 pixels
Height : 304 pixels
Display aspect ratio : 2.35:1
Frame rate : 23.976 (24000/1001) FPS
Color space : YUV
Chroma subsampling : 4:2:0
Bit depth : 8 bits
Scan type : Progressive
Compression mode : Lossy
Bits/(Pixel*Frame) : 0.279
Stream size : 1.15 GiB (79%)
Writing library : XviD 1.2.1 (UTC 2008-12-04)
Audio #1
ID : 1
Format : AC-3
Format/Info : Audio Coding 3
Format settings, Endianness : Big
Codec ID : 2000
Duration : 1 h 52 min
Bit rate mode : Constant
Bit rate : 192 kb/s
Channel(s) : 2 channels
Channel positions : Front: L R
Sampling rate : 48.0 kHz
Frame rate : 31.250 FPS (1536 SPF)
Bit depth : 16 bits
Compression mode : Lossy
Stream size : 154 MiB (10%)
Alignment : Split accross interleaves
Interleave, duration : 42 ms (1.00 video frame)
Interleave, preload duratio : 500 ms
Title : Россия: Андрей Казанцев, Борис Токарев и ???
Service kind : Complete Main
Audio #2
ID : 2
Format : AC-3
Format/Info : Audio Coding 3
Format settings, Endianness : Big
Codec ID : 2000
Duration : 1 h 52 min
Bit rate mode : Constant
Bit rate : 192 kb/s
Channel(s) : 2 channels
Channel positions : Front: L R
Sampling rate : 48.0 kHz
Frame rate : 31.250 FPS (1536 SPF)
Bit depth : 16 bits
Compression mode : Lossy
Stream size : 154 MiB (10%)
Alignment : Split accross interleaves
Interleave, duration : 42 ms (1.00 video frame)
Interleave, preload duratio : 500 ms
Service kind : Complete Main

Скриншот c названием фильма

Скриншоты

If your ratio falls below 0.3, you will not be able to download Torrents! More about the rating.

[erzsebet.pl].t501.torrent
Torrent: Registered [ 2017-12-02 16:56 ] · C1F7B2DA52BEB532EA19C73B0D83CEBE4E59004B

Download .torrent

Download

15 KB

Status: checked
Completed: 16 times
Size: 1.46 GB
terms.php
[Profile] [PM]
Display posts:    
Reply to topic

Current time is: 23-Jan 23:25

All times are UTC ± 0



You cannot post new topics in this forum
You cannot reply to topics in this forum
You cannot edit your posts in this forum
You cannot delete your posts in this forum
You cannot vote in polls in this forum
You cannot attach files in this forum
You can download files in this forum