Мари-Октябрь / Marie-Octobre (Жюльен Дювивье / Julien Duvivier) [1959, Франция, драма, детектив, BDRip] DVO + Sub Eng + Original Fre

Reply to topic
DL-List and Torrent activity
Size:  1.59 GB   |    Registered:  3 years 1 month   |    Completed:  16 times

Seeder not seen: Never

 
   
 
 
Author Message

erzsebet.org ®

Longevity: 3 years 1 month

Posts: 47596

Post 02-Dec-2017 16:55

[Quote]

Мари-Октябрь / Marie-Octobre
Страна: Франция
Жанр: драма, детектив
Год выпуска: 1959
Продолжительность: 01:39:04
Перевод: Профессиональный (двухголосый закадровый)
Субтитры: английские
Оригинальная аудиодорожка: французский
Режиссер: Жюльен Дювивье / Julien Duvivier
В ролях: Даниель Дарьё, Бернар Блие, Робер Дальбан, Поль Франкёр, Жанна Фюзье-Жир, Поль Гер, Даниэль Ивернель, Поль Мёрисс, Серж Реджани, Ноэль Роквер, Лино Вентура
Описание: Неизвестный предатель выдал нацистам участников французского Сопротивления. Уцелевшие члены группы собралась через 15 лет после окончания войны в доме Мари Дюмолен, чтобы разобраться, кто из них предатель. Эстафета подозрений передается от одного к другому, все оказываются припертыми к стенке, даже сама Мари-Октябрь не исключение. Восстанавливаются факты, слова, детали. Наконец останется один, круг сомкнулся...
Качество видео: BDRip
Формат видео: AVI
Видео: 720x432 (1.67:1), 23.976 fps, XviD build 73 ~1901 kbps avg, 0.26 bit/pixel
Аудио: 48 kHz, AC3 Dolby Digital, 2/0 (L,R) ch, ~192 kbps - двухголосый
Аудио: 48 kHz, AC3 Dolby Digital, 2/0 (L,R) ch, ~192 kbps - оригинал (отдельно)
Формат субтитров: softsub (SRT)

MediaInfo

General
Complete name : H:\Marie-Octobre.1959.bdrip_[1.46]_[teko]\Marie-Octobre.1959.bdrip_[1.46].avi
Format : AVI
Format/Info : Audio Video Interleave
File size : 1.46 GiB
Duration : 1h 39mn
Overall bit rate : 2 103 Kbps
Writing application : VirtualDubMod 1.5.10.3 | www.virtualdub-fr.org || (build 2550/release)
Writing library : VirtualDubMod build 2550/release
Video
ID : 0
Format : MPEG-4 Visual
Format profile : Advanced [email protected]
Format settings, BVOP : 2
Format settings, QPel : No
Format settings, GMC : No warppoints
Format settings, Matrix : Custom
Codec ID : XVID
Codec ID/Hint : XviD
Duration : 1h 39mn
Bit rate : 1 902 Kbps
Width : 720 pixels
Height : 432 pixels
Display aspect ratio : 5:3
Frame rate : 23.976 (23976/1000) fps
Color space : YUV
Chroma subsampling : 4:2:0
Bit depth : 8 bits
Scan type : Progressive
Compression mode : Lossy
Bits/(Pixel*Frame) : 0.255
Stream size : 1.32 GiB (90%)
Writing library : XviD 73
Audio
ID : 1
Format : AC-3
Format/Info : Audio Coding 3
Mode extension : CM (complete main)
Format settings, Endianness : Big
Codec ID : 2000
Duration : 1h 39mn
Bit rate mode : Constant
Bit rate : 192 Kbps
Channel(s) : 2 channels
Channel positions : Front: L R
Sampling rate : 48.0 KHz
Frame rate : 31.250 fps (1536 spf)
Compression mode : Lossy
Stream size : 136 MiB (9%)
Alignment : Split accross interleaves
Interleave, duration : 42 ms (1.00 video frame)
Interleave, preload duratio : 500 ms
Релиз группы:
--

If your ratio falls below 0.3, you will not be able to download Torrents! More about the rating.

[erzsebet.pl].t502.torrent
Torrent: Registered [ 2017-12-02 16:56 ] · 580A348F21B43082E45E3DDC0F6480197618B128

Download .torrent

Download

17 KB

Status: checked
Completed: 16 times
Size: 1.59 GB
terms.php
[Profile] [PM]
Display posts:    
Reply to topic

Current time is: 20-Jan 06:13

All times are UTC ± 0



You cannot post new topics in this forum
You cannot reply to topics in this forum
You cannot edit your posts in this forum
You cannot delete your posts in this forum
You cannot vote in polls in this forum
You cannot attach files in this forum
You can download files in this forum