Страсть человеческая / Человеческое желание / Human Desire (Фриц Ланг / Fritz Lang) [1954, США, нуар, драма, WEB-DLRip] VO (Рутилов) + Sub Rus, Eng + Original Eng

Reply to topic
DL-List and Torrent activity
Size:  1.58 GB   |    Registered:  3 years 1 month   |    Completed:  16 times

Seeder not seen: Never

 
   
 
 
Author Message

erzsebet.org ®

Longevity: 3 years 1 month

Posts: 47596

Post 02-Dec-2017 16:55

[Quote]

Страсть человеческая / Человеческое желание / Human Desire
Страна: США
Жанр: нуар, драма
Год выпуска: 1954
Продолжительность: 01:30:49
Перевод: Одноголосый закадровый Виктор Рутилов
Субтитры: русские(2 вида: Amapola; dhreilly), английские (полные, для слабослышащих)
Оригинальная аудиодорожка: английский
Режиссер: Фриц Ланг / Fritz Lang
В ролях: Гленн Форд, Глория Грэм, Бродерик Кроуфорд, Эдгар Баканан, Кэтлин Кейс, Пегги Мали, Грэндон Родс, Дэн Сеймур, Джон Пиккард
Описание: Служащий железной дороги Карл Бакли женат на женщине гораздо моложе его — Вики. Лишившись места, он просит жену сходить к Джону Оуэнсу, влиятельному и богатому человеку, чтобы тот вступился за него и помог вернуться на работу. Мать Вики была когда-то домработницей у Оуэнса. Вики проводит день в доме у Оуэнса и добивается успеха. Бакли охвачен непреодолимой ревностью и заставляет Вики признаться, что та отдалась Оуэнсу, что нередко случалось и до ее замужества. Он вынуждает ее назначить Оуэнсу свидание в купе, затем приходит туда вместе с ней и убивает его. На время поездки Вики приходится заигрывать с коллегой мужа машинистом Джеффом Уорреном, который вернулся на службу, отвоевав три года в Корее (Уоррен случайно оказался на пути Бакли, когда тот хотел вернуться к себе в купе). На дознании Джефф отрицает, что видел Вики в поезде, где было совершенно убийство. Джефф и Вики встречаются снова; они становятся любовниками…
Качество видео: WEB-DLRip
Формат видео: AVI
Видео: 704x400 (1.76:1), 23.976 fps, XviD build 73 ~2091 kbps avg, 0.31 bit/pixel
Аудио: 48 kHz, AC3 Dolby Digital, 2/0 (L,R) ch, ~192 kbps - одноголосый
Аудио: 48 kHz, AC3 Dolby Digital, 2/0 (L,R) ch, ~192 kbps - оригинал (отдельно)
Формат субтитров: softsub (SRT)

MediaInfo

General
Complete name : H:\Human.Desire.1954.web-dlrip_[1.46]_[teko]\Human.Desire.1954.web-dlrip_[1.46].avi
Format : AVI
Format/Info : Audio Video Interleave
File size : 1.45 GiB
Duration : 1h 30mn
Overall bit rate : 2 293 Kbps
Writing application : VirtualDubMod 1.5.10.3 | www.virtualdub-fr.org || (build 2550/release)
Writing library : VirtualDubMod build 2550/release
Video
ID : 0
Format : MPEG-4 Visual
Format profile : Advanced [email protected]
Format settings, BVOP : 2
Format settings, QPel : No
Format settings, GMC : No warppoints
Format settings, Matrix : Custom
Codec ID : XVID
Codec ID/Hint : XviD
Duration : 1h 30mn
Bit rate : 2 092 Kbps
Width : 704 pixels
Height : 400 pixels
Display aspect ratio : 16:9
Frame rate : 23.976 (23976/1000) fps
Color space : YUV
Chroma subsampling : 4:2:0
Bit depth : 8 bits
Scan type : Progressive
Compression mode : Lossy
Bits/(Pixel*Frame) : 0.310
Stream size : 1.33 GiB (91%)
Writing library : XviD 73
Audio
ID : 1
Format : AC-3
Format/Info : Audio Coding 3
Mode extension : CM (complete main)
Format settings, Endianness : Big
Codec ID : 2000
Duration : 1h 30mn
Bit rate mode : Constant
Bit rate : 192 Kbps
Channel(s) : 2 channels
Channel positions : Front: L R
Sampling rate : 48.0 KHz
Frame rate : 31.250 fps (1536 spf)
Compression mode : Lossy
Stream size : 125 MiB (8%)
Alignment : Split accross interleaves
Interleave, duration : 42 ms (1.00 video frame)
Interleave, preload duratio : 500 ms
Релиз группы:
--

If your ratio falls below 0.3, you will not be able to download Torrents! More about the rating.

[erzsebet.pl].t503.torrent
Torrent: Registered [ 2017-12-02 16:56 ] · D0FF4F268A3713B0303494EE171CB585F162D4BF

Download .torrent

Download

17 KB

Status: checked
Completed: 16 times
Size: 1.58 GB
terms.php
[Profile] [PM]
Display posts:    
Reply to topic

Current time is: 22-Jan 21:07

All times are UTC ± 0



You cannot post new topics in this forum
You cannot reply to topics in this forum
You cannot edit your posts in this forum
You cannot delete your posts in this forum
You cannot vote in polls in this forum
You cannot attach files in this forum
You can download files in this forum