Дэви Крокетт, король диких земель / Дэви Крокетт, король дикого фронтира / Davy Crockett: King of the Wild Frontier (Норман Фостер / Norman Foster) [1955, США, вестерн, приключения, DVDRip] VO (Nastia) + Original Eng + Sub (Rus)

Reply to topic
DL-List and Torrent activity
Size:  1.49 GB   |    Registered:  3 years 1 month   |    Completed:  16 times

Seeder not seen: Never

 
   
 
 
Author Message

erzsebet.org ®

Longevity: 3 years 1 month

Posts: 47596

Post 02-Dec-2017 16:55

[Quote]

Дэви Крокетт, король диких земель / Дэви Крокетт, король дикого фронтира / Davy Crockett: King of the Wild Frontier
Страна: США
Жанр: вестерн, приключения
Год выпуска: 1955
Продолжительность: 01:29:00
Перевод: Одноголосый закадровый Nastia
Субтитры: Русские (Форсированные на песни, полные)
Оригинальная аудиодорожка: Английский
Режиссер: Норман Фостер / Norman Foster
В ролях: Фесс Паркер, Бадди Эбсен, Бэзил Руисдейл, Ганс Конрид, Уильям Бэйкуэлл, Кеннет Тоби, Пэт Хоган, Хелен Стэнли, Ник Крэвет, Дон Мегован
Описание: Дэви и его приятель Джорджи нанимаются в армию и им удается заключить мир между регулярными частями и индейцами. Затем они арестовывают мошенника, незаконно распродающего индейские земли. Далее Крокетт баллотируется в конгресс и не даёт принять законопроект узурпирующий земли индейцев. Венцом их приключений станет участие в легендарном сражении при Аламо....
Доп. информация: Фильм переведен и озвучен специально для: 7букв Вестерн / группа Джесси Джеймса,
При участии ВК—группы Душевное кино. Видеоряд взят отсюда http://erzsebet.org/forum/viewtopic.php?t=5175946
Отдельная благодарность Alassea за предоставленную русскую звуковую дорожку и субтитры.
Перевод: Виталий Логачев
Закадровый текст: Nastia.
Сэмпл: http://multi-up.com/1162162
Качество видео: DVDRip
Формат видео: AVI
Видео: XviD, 624x448, (1,39:1), 25,000 fps, 1999 Кбит/с, 8 бит, 0.29 bit/pixel
Аудио: Русский (АС3, 2 ch (Front: L R), 48,0 KHz, 192 Kbps)
Аудио 2: Английский (АС3, 2 ch (Front: L R), 48,0 KHz, 192 Kbps)

MediaInfo

Общее
Полное имя : F:\Видеофильмы\В и д е о\Дэви Крокетт, король диких земель_(вестерн 1955 год)_Leonard_Lew\Дэви Крокетт, король диких земель_(вестерн 1955 год)_Leonard_Lew.avi
Формат : AVI
Формат/Информация : Audio Video Interleave
Размер файла : 1,49 Гбайт
Продолжительность : 1 ч. 29 м.
Общий поток : 2398 Кбит/сек
Программа кодирования : VirtualDubMod 1.5.10.2 (build 2540/release)
Библиотека кодирования : VirtualDubMod build 2540/release
Видео
Идентификатор : 0
Формат : MPEG-4 Visual
Профиль формата : Advanced [email protected]
Параметр BVOP формата : 2
Параметр QPel формата : Нет
Параметр GMC формата : Без точки перехода
Параметр матрицы формата : Default (MPEG)
Идентификатор кодека : XVID
Идентификатор кодека/Подсказка : XviD
Продолжительность : 1 ч. 29 м.
Битрейт : 1999 Кбит/сек
Ширина : 624 пикселя
Высота : 448 пикселей
Соотношение сторон : 1,393
Частота кадров : 25,000 кадров/сек
Цветовое пространство : YUV
Субдискретизация насыщенности : 4:2:0
Битовая глубина : 8 бит
Тип развёртки : Прогрессивная
Метод сжатия : С потерями
Бит/(Пиксели*Кадры) : 0.286
Размер потока : 1,24 Гбайт (83%)
Библиотека кодирования : XviD 64
Аудио #1
Идентификатор : 1
Формат : AC-3
Формат/Информация : Audio Coding 3
Расширение режима : CM (complete main)
Параметр Endianness формата : Big
Идентификатор кодека : 2000
Продолжительность : 1 ч. 29 м.
Вид битрейта : Постоянный
Битрейт : 192 Кбит/сек
Каналы : 2 канала
Расположение каналов : Front: L R
Частота : 48,0 КГц
Частота кадров : 31,250 кадров/сек (1536 spf)
Метод сжатия : С потерями
Размер потока : 122 Мбайт (8%)
Выравнивание : Разделение по промежуткам
Продолжительность промежутка : 40 мс. (1,00 видеокадр)
Время предзагрузки промежутка : 500 мс.
Аудио #2
Идентификатор : 2
Формат : AC-3
Формат/Информация : Audio Coding 3
Расширение режима : CM (complete main)
Параметр Endianness формата : Big
Идентификатор кодека : 2000
Продолжительность : 1 ч. 29 м.
Вид битрейта : Постоянный
Битрейт : 192 Кбит/сек
Каналы : 2 канала
Расположение каналов : Front: L R
Частота : 48,0 КГц
Частота кадров : 31,250 кадров/сек (1536 spf)
Метод сжатия : С потерями
Размер потока : 122 Мбайт (8%)
Выравнивание : Разделение по промежуткам
Продолжительность промежутка : 40 мс. (1,00 видеокадр)
Время предзагрузки промежутка : 500 мс.

Скриншот c названием фильма

Скриншоты

If your ratio falls below 0.3, you will not be able to download Torrents! More about the rating.

[erzsebet.pl].t514.torrent
Torrent: Registered [ 2017-12-02 16:56 ] · 08099EB1090C72094B9E77FCDAC0D12056532C02

Download .torrent

Download

16 KB

Status: checked
Completed: 16 times
Size: 1.49 GB
terms.php
[Profile] [PM]
Display posts:    
Reply to topic

Current time is: 22-Jan 05:34

All times are UTC ± 0



You cannot post new topics in this forum
You cannot reply to topics in this forum
You cannot edit your posts in this forum
You cannot delete your posts in this forum
You cannot vote in polls in this forum
You cannot attach files in this forum
You can download files in this forum