Бродяга высокогорных равнин / Всадник высоких равнин / High Plains Drifter (Клинт Иствуд / Clint Eastwood) [1973, США, вестерн, HDRip] DVO (ОРТ)

Reply to topic
DL-List and Torrent activity
Size:  1.45 GB   |    Registered:  3 years 1 month   |    Completed:  16 times

Seeder not seen: Never

 
   
 
 
Author Message

erzsebet.org ®

Longevity: 3 years 1 month

Posts: 47596

Post 02-Dec-2017 16:55

[Quote]

Бродяга высокогорных равнин / Всадник высоких равнин / High Plains Drifter
Страна: США
Жанр: вестерн
Год выпуска: 1973
Продолжительность: 01:45:01
Перевод: Профессиональный (двухголосый закадровый) по заказу ОРТ
Субтитры: нет
Оригинальная аудиодорожка: нет
Режиссер: Клинт Иствуд / Clint Eastwood
В ролях: Клинт Иствуд (Clint Eastwood / The Stranger), Верна Блум (Verna Bloom / Sarah Belding), Марианна Хилл (Marianna Hill (в титрах Mariana Hill) / Callie Travers), Митчелл Райан (Mitchell Ryan / Dave Drake), Джек Джинг (Jack Ging / Morgan Allen), Стефан Гираш (Stefan Gierasch / Mayor Jason Hobart), Тед Хартли (Ted Hartley / Lewis Belding), Билли Кертис (Billy Curtis / Mordecai), Джеффри Льюис (Geoffrey Lewis / Stacey Bridges), Скотт Уолкер (Scott Walker / Bill Borders), Уолтер Барнс (Walter Barnes / Sheriff Sam Shaw), Пол Бринегар (Paul Brinegar / Lutie Naylor), Ричард Булл (Richard Bull / Asa Goodwin), Роберт Доннер (Robert Donner / Preacher), Джон Хиллерман (John Hillerman / Bootmaker), Энтони Джеймс (Anthony James / Cole Carlin), Дэн Вадис (Dan Vadis / Dan Carlin), Уильям О’Коннелл (William O’Connell / Barber), Джон Квэйд (John Quade / Jake Ross), Бадди Ван Хорн (Buddy Van Horn / Marshall Jim Duncan) и другие.
Описание: Человек без имени приезжает в маленький городок Лаго, жители которого не любят и боятся чужаков. Не прошло и часа как ему пришлось пристрелить трёх местных плохих парней, которые, как оказалось, были защитниками этого города. Вскоре выясняется, что в город для сведения счётов с его жителями собираются наведаться трое ещё более плохих парней. Однако горожане настолько трусливы, что не в состоянии дать отпор даже кучке бандитов. И тогда они решают нанять для своей защиты Безымянного…
Доп. информация: За исходник для видео спасибо Fredd Kruger. За аудиодорожку спасибо Hel_ka67.

Сэмпл: Здесь
Качество видео: HDRip (Исходник BDRip 1080p)
Формат видео: AVI
Видео: XviD, 720x304 (2,35:1) / 23,976 fps / 1779 kbps / 0,339 bit/pixel
Аудио: Russian: AC3 2/0 (L, R) ch, 192 kbps, 48 kHz, 16 bit / двухголосый (ОРТ)

MediaInfo

Общее
Полное имя : F:\Папка для скачиваний в erzsebet.org\High.Plains.Drifter_1973.BDRip.DVO(ОРТ).avi
Формат : AVI
Формат/Информация : Audio Video Interleave
Размер файла : 1,45 Гбайт
Продолжительность : 1 ч. 45 м.
Общий поток : 1980 Кбит/сек
Программа кодирования : VirtualDubMod 1.5.10.2 (build 2540/release)
Библиотека кодирования : VirtualDubMod build 2540/release
Видео
Идентификатор : 0
Формат : MPEG-4 Visual
Профиль формата : Advanced [email protected]
Параметр BVOP формата : 1
Параметр QPel формата : Нет
Параметр GMC формата : Без точки перехода
Параметр матрицы формата : Выборочная
Идентификатор кодека : XVID
Идентификатор кодека/Подсказка : XviD
Продолжительность : 1 ч. 45 м.
Битрейт : 1779 Кбит/сек
Ширина : 720 пикселей
Высота : 304 пикселя
Соотношение сторон : 2,35:1
Частота кадров : 23,976 кадра/сек
Цветовое пространство : YUV
Субдискретизация насыщенности : 4:2:0
Битовая глубина : 8 бит
Тип развёртки : Прогрессивная
Метод сжатия : С потерями
Бит/(Пиксели*Кадры) : 0.339
Размер потока : 1,30 Гбайт (90%)
Библиотека кодирования : XviD 1.2.1 (UTC 2008-12-04)
Аудио
Идентификатор : 1
Формат : AC-3
Формат/Информация : Audio Coding 3
Расширение режима : CM (complete main)
Параметр Endianness формата : Big
Идентификатор кодека : 2000
Продолжительность : 1 ч. 45 м.
Вид битрейта : Постоянный
Битрейт : 192 Кбит/сек
Каналы : 2 канала
Расположение каналов : Front: L R
Частота : 48,0 КГц
Битовая глубина : 16 бит
Метод сжатия : С потерями
Размер потока : 144 Мбайт (10%)
Выравнивание : Разделение по промежуткам
Продолжительность промежутка : 42 мс. (1,00 видеокадр)
Время предзагрузки промежутка : 500 мс.
Заголовок : DVO (ОРТ)

Скриншот c названием фильма

Скриншоты

If your ratio falls below 0.3, you will not be able to download Torrents! More about the rating.

[erzsebet.pl].t515.torrent
Torrent: Registered [ 2017-12-02 16:56 ] · 22B455EAD29EBD750425CD1C0BF8ED2FCF95C593

Download .torrent

Download

15 KB

Status: checked
Completed: 16 times
Size: 1.45 GB
terms.php
[Profile] [PM]
Display posts:    
Reply to topic

Current time is: 17-Jan 19:54

All times are UTC ± 0



You cannot post new topics in this forum
You cannot reply to topics in this forum
You cannot edit your posts in this forum
You cannot delete your posts in this forum
You cannot vote in polls in this forum
You cannot attach files in this forum
You can download files in this forum