Борис I / Boris I (Борислав Шаралиев / Borislav Sharaliev) [1984, Болгария, драма, исторический, SATRip-AVC] [Полная версия] DVO (СВ-Дубль)

DL-List and Torrent activity
Size:  4.36 GB   |    Registered:  2 years 10 months   |    Completed:  16 times
Seeders:  3  
 
   
 
 

Max Levien ®

Longevity:
2 years 10 months
Posts:
20374

[Quote] 

-Борис I / Boris I-
Страна: Болгария
Производство: AAVC, Boyana Film
Жанр: драма, исторический
Год выпуска: 1984
Продолжительность: 04:05:22 (01:05:27 + 00:58:24 + 01:01:58 + 00:59:30)
-Перевод: Профессиональный (двухголосый закадровый) студия СВ-Дубль по заказу ГТРК "Культура"
Субтитры: нет
-Режиссер: Борислав Шаралиев / Borislav Sharaliev-В ролях: Стефан Данаилов, Борис Луканов, Анета Петровска, Антоний Генов, Венцислав Кисёв, Коста Цонев, Пламен Дончев, Петар Петров, Иван Иванов, Янина Кашева, Адриана Петрова, Ириней Константинов, Соня Дюлгерова, Илия Добрев, Лучезар Стоянов, Жулиета Ралева, Росица Петрова, Вылчо Камарашев, Иван Янчев, Константин Димчев, Емил Джуров, Илия Раев, Георги Джубрилов, Светослав Карабойков, Иван Томов, Васил Мирчовски, Радко Дишлиев, Кирил Варийски-Описание: Лето 6371 года от сотворения мира, а от Христа 863 год. Хан болгаров был Борис. И с большой силой налетели враги, и воевал Борис 10 лет…
Вторая половина 9-го века. Молодой хан болгар Борис I объединил в одну державу два народа — болгар и славян. Он понимает, что укрепить государство ему поможет религия. И он совершает знаменательное событие — крещение. Князь Борис так-же понимает и другое — для государства необходим единый язык и письменность. Он приглашает учеников равноапостольных Кирилла и Мефодия для создания Орхидской и Преславской книжной школы.
-Доп. информация:

В данном рипе нет никаких логотипов и всплывающих надписей. Полная версия фильма.
Фильм состоит из двух серий, каждая из которой разделена на две части.
Сценарист: Ангел Вагенштайн
Оператор: Венец Димитров
Композитор: Веселин Николов
Художник: Мария Иванова
-Награды:
* Гран-при "Золотая Роза", Варна, 1984
* Приз за лучшую режиссуру, сценарий, кинематографию и сценографию на СБФД, 1985
-Сэмпл: https://yadi.sk/i/2YeVy7leo79C4-Качество видео: SATRip-AVC
Формат видео: MKV
Видео кодек: H.264
Аудио кодек: AC3
Видео: [email protected] анаморф (2.51:1), 25 fps, ~2355 kbps
Аудио: 48 kHz, AC3 Dolby Digital, 2/0 (L,R) ch, ~192 kbps | DVO (СВ-Дубль)
-

Подробнее о каждой части

1-я серия. "Крещение". Часть 1-я.

864 год от рождества Христова. Болгарский хан Борис решает установить долговечный мир с соседями и положить конец разделению между болгарами и славянами. Он принимает христианскую веру и становится князем Борисом.

1-я серия. "Крещение". Часть 2-я.

865 год. Греческие священники приходят в Болгарию крестить народ. Встает вопрос о богослужебном языке и подчинении церкви. Не желая принимать новую веру, языческая знать поднимает мятеж. Но Борис казнит бояр-бунтовщиков, спасая страну от гибели, и остаётся полновластным князем Болгарским.

2-я серия. "Слово о письменах". Часть 1-я.

Минуло два десятилетия, как болгары приняли христианство. Но греческий богослужебный язык так и остался для народа чужим и непонятым. Простые и ясные слова, что укрепят сердца и умы, приносят в дар ученики Кирилла и Мефодия. Монахи передают князю славянские письмена и азбуку, которой выучатся тысячи чтецов, писцов, учителей и священников. Построив на своей земле первую школу, Борис передает престол сыну Владимиру-Расате и удаляется в монастырь.

2-я серия. "Слово о письменах". Часть 2-я.

Монах Борис видит, что семена просвещения легли на благодатную почву. Но князь Владимир-Расате собирается разрушить храмы, вернуть старую веру и вновь разделить народ на два племени. Борис не может смотреть, как сын ставит Болгарию на грань пропасти.
-

MediaInfo

1_1 Крещение

Лог

raw [info]: 712x306p 137:127 @ 25/1 fps (cfr)
x264 [info]: using SAR=137/127
x264 [info]: using cpu capabilities: MMX2 SSE2Fast SSSE3 SSE4.2 LZCNT BMI1 BMI2
x264 [info]: profile High, level 4.1
x264 [info]: frame I:540 Avg QP:10.76 size: 76992
x264 [info]: frame P:31686 Avg QP:13.32 size: 26081
x264 [info]: frame B:65972 Avg QP:18.16 size: 3142

x264 [info]: consecutive B-frames: 12.0% 6.6% 11.9% 19.0% 19.8% 22.9% 4.7% 1.9% 1.1%
x264 [info]: mb I I16..4: 11.7% 49.7% 38.6%
x264 [info]: mb P I16..4: 0.3% 5.1% 3.9% P16..4: 33.8% 27.0% 29.2% 0.0% 0.0% skip: 0.7%
x264 [info]: mb B I16..4: 0.0% 0.3% 0.3% B16..8: 31.4% 11.9% 4.3% direct: 6.7% skip:45.0% L0:23.2% L1:30.8% BI:46.0%
x264 [info]: 8x8 transform intra:52.9% inter:38.3%
x264 [info]: direct mvs spatial:98.7% temporal:1.3%
x264 [info]: coded y,uvDC,uvAC intra: 91.5% 95.7% 79.0% inter: 35.5% 33.5% 11.9%
x264 [info]: i16 v,h,dc,p: 16% 13% 36% 35%
x264 [info]: i8 v,h,dc,ddl,ddr,vr,hd,vl,hu: 24% 16% 14% 6% 7% 8% 6% 9% 10%
x264 [info]: i4 v,h,dc,ddl,ddr,vr,hd,vl,hu: 35% 13% 6% 6% 8% 9% 7% 8% 8%
x264 [info]: i8c dc,h,v,p: 45% 22% 25% 8%
x264 [info]: Weighted P-Frames: Y:6.8% UV:2.7%
x264 [info]: ref P L0: 68.2% 12.7% 10.7% 2.6% 1.9% 1.3% 1.2% 0.9% 0.5% 0.1%
x264 [info]: ref B L0: 92.3% 5.4% 1.0% 0.5% 0.3% 0.2% 0.2%
x264 [info]: ref B L1: 98.2% 1.8%
x264 [info]: kb/s:2189.93
General
Unique ID : 201193150900377242682796925212102331200 (0x975C64324BEFC7718193CC57B0918B40)
Complete name : C:\Torrent\Борис I.1984.SATRip-AVC by Dmitrio7197\1_1 Крещение.mkv
Format : Matroska
Format version : Version 2
File size : 1.09 GiB
Duration : 1h 5mn
Overall bit rate : 2 384 Kbps
Encoded date : UTC 2016-01-10 07:16:56
Writing application : mkvmerge v6.1.0 ('Old Devil') built on Mar 4 2013 09:10:42
Writing library : libebml v1.3.0 + libmatroska v1.4.0
Video
ID : 1
Format : AVC
Format/Info : Advanced Video Codec
Format profile : [email protected]
Format settings, CABAC : Yes
Format settings, ReFrames : 8 frames
Codec ID : V_MPEG4/ISO/AVC
Duration : 1h 5mn
Bit rate : 2 190 Kbps
Width : 712 pixels
Height : 306 pixels
Display aspect ratio : 2.510
Frame rate mode : Constant
Frame rate : 25.000 fps
Color space : YUV
Chroma subsampling : 4:2:0
Bit depth : 8 bits
Scan type : Progressive
Bits/(Pixel*Frame) : 0.402
Stream size : 1 004 MiB (90%)
Writing library : x264 core 130 r2273 b3065e6
Encoding settings : cabac=1 / ref=8 / deblock=1:0:0 / analyse=0x3:0x113 / me=umh / subme=9 / psy=1 / psy_rd=1.00:0.15 / mixed_ref=1 / me_range=24 / chroma_me=1 / trellis=2 / 8x8dct=1 / cqm=0 / deadzone=21,11 / fast_pskip=1 / chroma_qp_offset=-3 / threads=6 / lookahead_threads=1 / sliced_threads=0 / nr=0 / decimate=1 / interlaced=0 / bluray_compat=0 / constrained_intra=0 / bframes=8 / b_pyramid=2 / b_adapt=2 / b_bias=0 / direct=3 / weightb=1 / open_gop=0 / weightp=2 / keyint=250 / keyint_min=25 / scenecut=40 / intra_refresh=0 / rc_lookahead=40 / rc=2pass / mbtree=1 / bitrate=2190 / ratetol=1.0 / qcomp=0.60 / qpmin=0 / qpmax=69 / qpstep=4 / cplxblur=20.0 / qblur=0.5 / ip_ratio=1.40 / aq=1:1.00
Default : Yes
Forced : No
Audio
ID : 2
Format : AC-3
Format/Info : Audio Coding 3
Mode extension : CM (complete main)
Format settings, Endianness : Big
Codec ID : A_AC3
Duration : 1h 5mn
Bit rate mode : Constant
Bit rate : 192 Kbps
Channel(s) : 2 channels
Channel positions : Front: L R
Sampling rate : 48.0 KHz
Compression mode : Lossy
Stream size : 89.9 MiB (8%)
Default : Yes
Forced : No

1_2 Крещение

Лог

raw [info]: 712x306p 137:127 @ 25/1 fps (cfr)
x264 [info]: using SAR=137/127
x264 [info]: using cpu capabilities: MMX2 SSE2Fast SSSE3 SSE4.2 LZCNT BMI1 BMI2
x264 [info]: profile High, level 4.1
x264 [info]: frame I:481 Avg QP:10.57 size: 76733
x264 [info]: frame P:30932 Avg QP:13.24 size: 27545
x264 [info]: frame B:56194 Avg QP:17.70 size: 3497

x264 [info]: consecutive B-frames: 15.2% 7.5% 13.2% 17.0% 19.3% 21.2% 4.5% 1.4% 0.8%
x264 [info]: mb I I16..4: 12.6% 49.8% 37.6%
x264 [info]: mb P I16..4: 0.4% 5.3% 4.0% P16..4: 33.7% 26.4% 30.0% 0.0% 0.0% skip: 0.3%
x264 [info]: mb B I16..4: 0.0% 0.4% 0.4% B16..8: 30.3% 12.6% 4.8% direct: 7.3% skip:44.2% L0:23.8% L1:30.7% BI:45.6%
x264 [info]: 8x8 transform intra:53.4% inter:38.1%
x264 [info]: coded y,uvDC,uvAC intra: 91.4% 95.8% 82.4% inter: 40.8% 40.2% 26.5%
x264 [info]: i16 v,h,dc,p: 15% 13% 46% 27%
x264 [info]: i8 v,h,dc,ddl,ddr,vr,hd,vl,hu: 24% 17% 17% 5% 6% 8% 6% 8% 9%
x264 [info]: i4 v,h,dc,ddl,ddr,vr,hd,vl,hu: 34% 14% 7% 6% 8% 9% 7% 8% 8%
x264 [info]: i8c dc,h,v,p: 45% 21% 26% 8%
x264 [info]: Weighted P-Frames: Y:4.7% UV:1.4%
x264 [info]: ref P L0: 70.5% 13.6% 9.0% 2.1% 1.6% 1.1% 1.0% 0.7% 0.4% 0.0%
x264 [info]: ref B L0: 91.3% 5.5% 1.4% 0.7% 0.6% 0.3% 0.2%
x264 [info]: ref B L1: 98.0% 2.0%
x264 [info]: kb/s:2477.99
General
Unique ID : 248454991127280805287992448114543870173 (0xBAEAB0D35149314589507013F3A0C0DD)
Complete name : C:\Torrent\Борис I.1984.SATRip-AVC by Dmitrio7197\1_2 Крещение.mkv
Format : Matroska
Format version : Version 2
File size : 1.09 GiB
Duration : 58mn 24s
Overall bit rate : 2 672 Kbps
Encoded date : UTC 2016-01-11 04:42:34
Writing application : mkvmerge v6.1.0 ('Old Devil') built on Mar 4 2013 09:10:42
Writing library : libebml v1.3.0 + libmatroska v1.4.0
Video
ID : 1
Format : AVC
Format/Info : Advanced Video Codec
Format profile : [email protected]
Format settings, CABAC : Yes
Format settings, ReFrames : 8 frames
Codec ID : V_MPEG4/ISO/AVC
Duration : 58mn 24s
Bit rate : 2 478 Kbps
Width : 712 pixels
Height : 306 pixels
Display aspect ratio : 2.510
Frame rate mode : Constant
Frame rate : 25.000 fps
Color space : YUV
Chroma subsampling : 4:2:0
Bit depth : 8 bits
Scan type : Progressive
Bits/(Pixel*Frame) : 0.455
Stream size : 1 014 MiB (91%)
Writing library : x264 core 130 r2273 b3065e6
Encoding settings : cabac=1 / ref=8 / deblock=1:0:0 / analyse=0x3:0x113 / me=umh / subme=9 / psy=1 / psy_rd=1.00:0.15 / mixed_ref=1 / me_range=24 / chroma_me=1 / trellis=2 / 8x8dct=1 / cqm=0 / deadzone=21,11 / fast_pskip=1 / chroma_qp_offset=-3 / threads=6 / lookahead_threads=1 / sliced_threads=0 / nr=0 / decimate=0 / interlaced=0 / bluray_compat=0 / constrained_intra=0 / bframes=8 / b_pyramid=2 / b_adapt=2 / b_bias=0 / direct=1 / weightb=1 / open_gop=0 / weightp=2 / keyint=250 / keyint_min=25 / scenecut=40 / intra_refresh=0 / rc_lookahead=40 / rc=2pass / mbtree=1 / bitrate=2478 / ratetol=1.0 / qcomp=0.60 / qpmin=0 / qpmax=69 / qpstep=4 / cplxblur=20.0 / qblur=0.5 / ip_ratio=1.40 / aq=1:1.00
Default : Yes
Forced : No
Audio
ID : 2
Format : AC-3
Format/Info : Audio Coding 3
Mode extension : CM (complete main)
Format settings, Endianness : Big
Codec ID : A_AC3
Duration : 58mn 24s
Bit rate mode : Constant
Bit rate : 192 Kbps
Channel(s) : 2 channels
Channel positions : Front: L R
Sampling rate : 48.0 KHz
Compression mode : Lossy
Stream size : 80.2 MiB (7%)
Default : Yes
Forced : No

2_1 Слово о письменах

Лог

raw [info]: 712x306p 137:127 @ 25/1 fps (cfr)
x264 [info]: using SAR=137/127
x264 [info]: using cpu capabilities: MMX2 SSE2Fast SSSE3 SSE4.2 LZCNT BMI1 BMI2
x264 [info]: profile High, level 4.1
x264 [info]: frame I:516 Avg QP: 9.49 size: 74066
x264 [info]: frame P:26919 Avg QP:11.98 size: 30526
x264 [info]: frame B:65538 Avg QP:15.78 size: 3363

x264 [info]: consecutive B-frames: 8.7% 5.9% 11.6% 14.9% 21.8% 27.8% 5.5% 2.4% 1.3%
x264 [info]: mb I I16..4: 18.9% 41.2% 39.8%
x264 [info]: mb P I16..4: 1.0% 7.9% 5.7% P16..4: 30.5% 26.5% 28.2% 0.0% 0.0% skip: 0.2%
x264 [info]: mb B I16..4: 0.0% 0.4% 0.3% B16..8: 29.8% 12.6% 4.5% direct: 8.6% skip:43.7% L0:25.2% L1:29.5% BI:45.3%
x264 [info]: 8x8 transform intra:52.8% inter:35.7%
x264 [info]: coded y,uvDC,uvAC intra: 92.5% 94.8% 82.4% inter: 35.9% 37.1% 23.0%
x264 [info]: i16 v,h,dc,p: 16% 10% 41% 33%
x264 [info]: i8 v,h,dc,ddl,ddr,vr,hd,vl,hu: 25% 18% 20% 5% 5% 7% 5% 7% 8%
x264 [info]: i4 v,h,dc,ddl,ddr,vr,hd,vl,hu: 32% 13% 8% 7% 8% 9% 7% 8% 8%
x264 [info]: i8c dc,h,v,p: 47% 22% 25% 6%
x264 [info]: Weighted P-Frames: Y:9.9% UV:3.5%
x264 [info]: ref P L0: 64.4% 12.6% 12.1% 3.2% 2.4% 1.8% 1.7% 1.2% 0.6% 0.1%
x264 [info]: ref B L0: 91.0% 6.1% 1.3% 0.6% 0.5% 0.3% 0.2%
x264 [info]: ref B L1: 98.3% 1.7%
x264 [info]: kb/s:2324.09
General
Unique ID : 186535964759152514169527606391537523489 (0x8C5585204245C298B6E68E64AB15DB21)
Complete name : C:\Torrent\Борис I.1984.SATRip-AVC by Dmitrio7197\2_1 Слово о письменах.mkv
Format : Matroska
Format version : Version 2
File size : 1.09 GiB
Duration : 1h 1mn
Overall bit rate : 2 518 Kbps
Encoded date : UTC 2016-01-12 04:16:51
Writing application : mkvmerge v6.1.0 ('Old Devil') built on Mar 4 2013 09:10:42
Writing library : libebml v1.3.0 + libmatroska v1.4.0
Video
ID : 1
Format : AVC
Format/Info : Advanced Video Codec
Format profile : [email protected]
Format settings, CABAC : Yes
Format settings, ReFrames : 8 frames
Codec ID : V_MPEG4/ISO/AVC
Duration : 1h 1mn
Bit rate : 2 324 Kbps
Width : 712 pixels
Height : 306 pixels
Display aspect ratio : 2.510
Frame rate mode : Constant
Frame rate : 25.000 fps
Color space : YUV
Chroma subsampling : 4:2:0
Bit depth : 8 bits
Scan type : Progressive
Bits/(Pixel*Frame) : 0.427
Stream size : 1 009 MiB (90%)
Writing library : x264 core 130 r2273 b3065e6
Encoding settings : cabac=1 / ref=8 / deblock=1:0:0 / analyse=0x3:0x113 / me=umh / subme=9 / psy=1 / psy_rd=1.00:0.15 / mixed_ref=1 / me_range=24 / chroma_me=1 / trellis=2 / 8x8dct=1 / cqm=0 / deadzone=21,11 / fast_pskip=1 / chroma_qp_offset=-3 / threads=6 / lookahead_threads=1 / sliced_threads=0 / nr=0 / decimate=0 / interlaced=0 / bluray_compat=0 / constrained_intra=0 / bframes=8 / b_pyramid=2 / b_adapt=2 / b_bias=0 / direct=1 / weightb=1 / open_gop=0 / weightp=2 / keyint=250 / keyint_min=25 / scenecut=40 / intra_refresh=0 / rc_lookahead=40 / rc=2pass / mbtree=1 / bitrate=2324 / ratetol=1.0 / qcomp=0.60 / qpmin=0 / qpmax=69 / qpstep=4 / cplxblur=20.0 / qblur=0.5 / ip_ratio=1.40 / aq=1:1.00
Default : Yes
Forced : No
Audio
ID : 2
Format : AC-3
Format/Info : Audio Coding 3
Mode extension : CM (complete main)
Format settings, Endianness : Big
Codec ID : A_AC3
Duration : 1h 1mn
Bit rate mode : Constant
Bit rate : 192 Kbps
Channel(s) : 2 channels
Channel positions : Front: L R
Sampling rate : 48.0 KHz
Compression mode : Lossy
Stream size : 85.1 MiB (8%)
Default : Yes
Forced : No

2_2 Слово о письменах

Лог

raw [info]: 712x306p 137:127 @ 25/1 fps (cfr)
x264 [info]: using SAR=137/127
x264 [info]: using cpu capabilities: MMX2 SSE2Fast SSSE3 SSE4.2 LZCNT BMI1 BMI2
x264 [info]: profile High, level 4.1
x264 [info]: frame I:486 Avg QP:10.09 size: 74023
x264 [info]: frame P:26405 Avg QP:12.59 size: 30076
x264 [info]: frame B:62383 Avg QP:16.50 size: 4075

x264 [info]: consecutive B-frames: 8.3% 6.7% 12.6% 21.4% 19.8% 22.9% 4.3% 2.9% 1.1%
x264 [info]: mb I I16..4: 15.3% 44.8% 39.9%
x264 [info]: mb P I16..4: 0.9% 7.3% 5.3% P16..4: 29.6% 28.1% 28.4% 0.0% 0.0% skip: 0.3%
x264 [info]: mb B I16..4: 0.0% 0.4% 0.4% B16..8: 30.7% 14.7% 5.5% direct: 8.3% skip:39.9% L0:25.4% L1:29.9% BI:44.7%
x264 [info]: 8x8 transform intra:52.2% inter:36.7%
x264 [info]: coded y,uvDC,uvAC intra: 91.9% 96.0% 84.7% inter: 37.4% 38.7% 23.9%
x264 [info]: i16 v,h,dc,p: 13% 11% 42% 34%
x264 [info]: i8 v,h,dc,ddl,ddr,vr,hd,vl,hu: 25% 16% 19% 5% 6% 7% 6% 8% 9%
x264 [info]: i4 v,h,dc,ddl,ddr,vr,hd,vl,hu: 33% 14% 7% 6% 8% 9% 7% 8% 8%
x264 [info]: i8c dc,h,v,p: 47% 21% 25% 7%
x264 [info]: Weighted P-Frames: Y:8.1% UV:2.6%
x264 [info]: ref P L0: 63.4% 13.7% 11.7% 3.2% 2.5% 1.8% 1.8% 1.2% 0.6% 0.1%
x264 [info]: ref B L0: 90.5% 6.0% 1.5% 0.8% 0.6% 0.4% 0.2%
x264 [info]: ref B L1: 97.9% 2.1%
x264 [info]: kb/s:2429.25
General
Unique ID : 209987209954720228910489482034374072149 (0x9DFA10C879B6B5AFBF7E8B520AC55755)
Complete name : C:\Torrent\Борис I.1984.SATRip-AVC by Dmitrio7197\2_2 Слово о письменах.mkv
Format : Matroska
Format version : Version 2
File size : 1.09 GiB
Duration : 59mn 30s
Overall bit rate : 2 623 Kbps
Encoded date : UTC 2016-01-12 11:56:45
Writing application : mkvmerge v6.1.0 ('Old Devil') built on Mar 4 2013 09:10:42
Writing library : libebml v1.3.0 + libmatroska v1.4.0
Video
ID : 1
Format : AVC
Format/Info : Advanced Video Codec
Format profile : [email protected]
Format settings, CABAC : Yes
Format settings, ReFrames : 8 frames
Codec ID : V_MPEG4/ISO/AVC
Duration : 59mn 30s
Bit rate : 2 429 Kbps
Width : 712 pixels
Height : 306 pixels
Display aspect ratio : 2.510
Frame rate mode : Constant
Frame rate : 25.000 fps
Color space : YUV
Chroma subsampling : 4:2:0
Bit depth : 8 bits
Scan type : Progressive
Bits/(Pixel*Frame) : 0.446
Stream size : 1 013 MiB (91%)
Writing library : x264 core 130 r2273 b3065e6
Encoding settings : cabac=1 / ref=8 / deblock=1:0:0 / analyse=0x3:0x113 / me=umh / subme=9 / psy=1 / psy_rd=1.00:0.15 / mixed_ref=1 / me_range=24 / chroma_me=1 / trellis=2 / 8x8dct=1 / cqm=0 / deadzone=21,11 / fast_pskip=1 / chroma_qp_offset=-3 / threads=6 / lookahead_threads=1 / sliced_threads=0 / nr=0 / decimate=0 / interlaced=0 / bluray_compat=0 / constrained_intra=0 / bframes=8 / b_pyramid=2 / b_adapt=2 / b_bias=0 / direct=1 / weightb=1 / open_gop=0 / weightp=2 / keyint=250 / keyint_min=25 / scenecut=40 / intra_refresh=0 / rc_lookahead=40 / rc=2pass / mbtree=1 / bitrate=2429 / ratetol=1.0 / qcomp=0.60 / qpmin=0 / qpmax=69 / qpstep=4 / cplxblur=20.0 / qblur=0.5 / ip_ratio=1.40 / aq=1:1.00
Default : Yes
Forced : No
Audio
ID : 2
Format : AC-3
Format/Info : Audio Coding 3
Mode extension : CM (complete main)
Format settings, Endianness : Big
Codec ID : A_AC3
Duration : 59mn 30s
Bit rate mode : Constant
Bit rate : 192 Kbps
Channel(s) : 2 channels
Channel positions : Front: L R
Sampling rate : 48.0 KHz
Compression mode : Lossy
Stream size : 81.7 MiB (7%)
Default : Yes
Forced : No

Скриншот c названием фильма

-

Сравнения с DVD

-- Почему не DVDRip-AVC?
- Не вижу смысла делать рип с заведомо мыльного DVD исходника при наличии четкого DVB: http://screenshotcomparison.com/comparison/140058-Сравнение DVD9 с новым SATRip-AVC: http://screenshotcomparison.com/comparison/160202-Сравнение с DVDRip avi: http://screenshotcomparison.com/comparison/160204-Перезалив торрента 01.02.16 в связи с изготовлением более качественного SATрипа: http://screenshotcomparison.com/comparison/160186-

If your ratio falls below 0.3, you will not be able to download Torrents! More about the rating.

[erzsebet.pl].t51575.torrent
Torrent: Registered   [ 2017-12-11 02:36 ]

Download .torrent

Download

12 KB

Status: checked
Completed: 16 times
Size: 4.36 GB
terms.php

#1

11-Dec-2017 01:30

[Profile]  [PM] 
Display posts:    

You cannot post new topics in this forum
You cannot reply to topics in this forum
You cannot edit your posts in this forum
You cannot delete your posts in this forum
You cannot vote in polls in this forum
You cannot attach files in this forum
You can download files in this forum
User agreement
For copyright holders
Advertise on this site

Скачайте на халяву через торрент на трекере erzsebet.pl

!ATTENTION!
The site does not give electronic versions of products, and is engaged only in a collecting and cataloguing of the references sent and published at a forum by our readers. If you are the legal owner of any submitted material and do not wish that the reference to it was in our catalogue, contact us and we shall immediately remove her. Files for an exchange on tracker are given by users of a site, and the administration does not bear the responsibility for their maintenance. The request to not fill in the files protected by copyrights, and also files of the illegal maintenance!