Стервятники над городом / Buitres sobre la ciudad / Vultures Over the City (Джанни Сирагуза / Gianni Siragusa) [1981, Испания, Италия, Мексика, боевик, еврокрайм, VHSRip] VO (ССК+) + Original Spa

DL-List and Torrent activity
Size:  980 MB   |    Registered:  2 years 10 months   |    Completed:  16 times
Seeders:  2  
 
   
 
 

Max Levien ®

Longevity:
2 years 10 months
Posts:
20374

[Quote] 

Стервятники над городом / Buitres sobre la ciudad / Vultures Over the City
Страна: Испания, Италия, Мексика
Жанр: боевик, еврокрайм
Год выпуска: 1981
Продолжительность: 01:26:25
Перевод: Одноголосый закадровый ССК+
Субтитры: нет
Оригинальная аудиодорожка: испанский
Режиссер: Джанни Сирагуза / Gianni Siragusa
Композитор
Стельвио Чиприани / Stelvio Cipriani
В ролях: Маурицио Мерли, Уго Стиглиц, Лилли Карати, Эдуардо Фахардо, Мануэль Сарсо, Фернандо Санчес Полак, Алехандро де Энчизо, Франк Бранья, Хосе Риесго, Мария Альварес
Описание:
"Американский журналист Марк Спенсьери работает над материалом о европейской нефтяной мафии, убийства боссов которой происходят в разных городах Европы. Неожиданно, к нему обращается Дениз Марчиано, жена одного из пропавших нефтеторговцев, с просьбой разыскать ее мужа. В полицию, по определенным причинам, женщина обращаться не хочет. В своих поисках Марк выходит на самую верхушку преступного картеля, который начинает ответные действия против него. Мафиози похищают девушку журналиста, и для того война приобретает личный характер…" - Кинопоиск-
Доп. информация:
IMDB
http://www.imdb.com/title/tt0080478/
Кинопоиск
http://www.kinopoisk.ru/film/59060/
Сэмпл: http://multi-up.com/1076847
Качество видео: VHSRip
Формат видео: AVI
Видео: XVID, 624х464, 4:3, 23.976 fps, 1 315 Kbps
Аудио: MP3, 44.1 KHz, 128 Kbps, 2 channels, русский
Аудио 2: МР3, 48.0 KHz, 128 Kbps, 2 channels, испанский

MediaInfo

General
Complete name : D:\РАЗДАЧИ\Стервятники над городом 1980\Стервятники над городом1980\Стервятники над городом1980.avi
Format : AVI
Format/Info : Audio Video Interleave
File size : 980 MiB
Duration : 1h 26mn
Overall bit rate : 1 585 Kbps
Writing application : VirtualDubMod 1.5.10.2 (build 2540/release)
Writing library : VirtualDubMod build 2540/release
Video
ID : 0
Format : MPEG-4 Visual
Format profile : Advanced [email protected]
Format settings, BVOP : 2
Format settings, QPel : No
Format settings, GMC : No warppoints
Format settings, Matrix : Default (H.263)
Codec ID : XVID
Codec ID/Hint : XviD
Duration : 1h 26mn
Bit rate : 1 315 Kbps
Width : 624 pixels
Height : 464 pixels
Display aspect ratio : 4:3
Frame rate : 23.976 fps
Color space : YUV
Chroma subsampling : 4:2:0
Bit depth : 8 bits
Scan type : Progressive
Compression mode : Lossy
Bits/(Pixel*Frame) : 0.189
Stream size : 813 MiB (83%)
Writing library : XviD 1.2.0.dev47 (UTC 2006-11-01)
Audio #1
ID : 1
Format : MPEG Audio
Format version : Version 1
Format profile : Layer 3
Codec ID : 55
Codec ID/Hint : MP3
Duration : 1h 26mn
Bit rate mode : Constant
Bit rate : 128 Kbps
Channel(s) : 2 channels
Sampling rate : 44.1 KHz
Compression mode : Lossy
Stream size : 79.1 MiB (8%)
Alignment : Split accross interleaves
Interleave, duration : 42 ms (1.00 video frame)
Interleave, preload duration : 500 ms
Audio #2
ID : 2
Format : MPEG Audio
Format version : Version 1
Format profile : Layer 3
Mode : Joint stereo
Codec ID : 55
Codec ID/Hint : MP3
Duration : 1h 26mn
Bit rate mode : Constant
Bit rate : 128 Kbps
Channel(s) : 2 channels
Sampling rate : 48.0 KHz
Compression mode : Lossy
Stream size : 79.1 MiB (8%)
Alignment : Aligned on interleaves
Interleave, duration : 42 ms (1.00 video frame)
Interleave, preload duration : 504 ms
Writing library : LAME3.97
Encoding settings : -m j -V 4 -q 2 -lowpass 17 -b 128

Скриншот c названием фильма

Скриншоты

Мои раздачи на рутрекере http://erzsebet.org/forum/tracker.php?rid=10591342

If your ratio falls below 0.3, you will not be able to download Torrents! More about the rating.

[erzsebet.pl].t51578.torrent
Torrent: Registered   [ 2017-12-11 02:36 ]

Download .torrent

Download

39 KB

Status: checked
Completed: 16 times
Size: 980 MB
terms.php

#1

11-Dec-2017 01:30

[Profile]  [PM] 
Display posts:    

You cannot post new topics in this forum
You cannot reply to topics in this forum
You cannot edit your posts in this forum
You cannot delete your posts in this forum
You cannot vote in polls in this forum
You cannot attach files in this forum
You can download files in this forum
User agreement
For copyright holders
Advertise on this site

Скачайте на халяву через торрент на трекере erzsebet.pl

!ATTENTION!
The site does not give electronic versions of products, and is engaged only in a collecting and cataloguing of the references sent and published at a forum by our readers. If you are the legal owner of any submitted material and do not wish that the reference to it was in our catalogue, contact us and we shall immediately remove her. Files for an exchange on tracker are given by users of a site, and the administration does not bear the responsibility for their maintenance. The request to not fill in the files protected by copyrights, and also files of the illegal maintenance!