Рыжая Соня / Red Sonja (Флайшер Ричард / Fleischer Richard) [1985, Нидерланды-США, Боевик, фэнтези, приключения, BDRip] MVO (ОРТ) + Original Eng

DL-List and Torrent activity
Size:  1.46 GB   |    Registered:  2 years 10 months   |    Completed:  16 times
Seeders:  2  
 
   
 
 

Max Levien ®

Longevity:
2 years 10 months
Posts:
20374

[Quote] 

Рыжая Соня / Red Sonja
Страна: Нидерланды-США
Жанр: Боевик, фэнтези, приключения
Год выпуска: 1985
Продолжительность: 01:28:52
Перевод: Профессиональный (многоголосый закадровый) ОРТ
Субтитры: нет
Оригинальная аудиодорожка: английский
Режиссер: Флайшер Ричард / Fleischer Richard
В ролях: Арнольд Шварценеггер, Бриджит Нильсен, Сэндал Бергман, Пол Л. Смит, Эрни Рейес мл., Рональд Лейси, Пэт Роуч, Терри Ричардс, Джанет Агрен
Описание: Могущественная колдунья королева Гедрен похищает древний магический талисман, способный уничтожить весь мир. Легендарный герой Калидор и отважная воительница Рыжая Соня оправляются в далекий, полный опасностей поход к Хаблаку — столице королевы Гедрен, чтобы сразиться с силами зла и спасти Землю от разрушения…
За дорожку спасибо серый75, за синхронизацию akchurin.a2011
Качество видео: BDRip Источник
Формат видео: AVI
Видео: 720x304 (2.37:1), 24 fps, XviD build 50 ~1758 kbps avg, 0.33 bit/pixel
Аудио: 48 kHz, AC3 Dolby Digital, 2/0 (L,R) ch, ~192 kbps
Аудио 2: 48 kHz, AC3 Dolby Digital, 3/2 (L,C,R,l,r) + LFE ch, ~384 kbps

MediaInfo

General
Complete name : C:\Рыжая Соня.avi
Format : AVI
Format/Info : Audio Video Interleave
File size : 1.46 GiB
Duration : 1h 28mn
Overall bit rate : 2 349 Kbps
Movie name : Рыжая Соня / Red Sonja (1985) BDRip
Director : HELLRAiSER
Writing application : VirtualDubMod 1.5.10.2 (build 2540/release)
Writing library : VirtualDubMod build 2540/release
Comment : 21.05.2010
Video
ID : 0
Format : MPEG-4 Visual
Format profile : Advanced [email protected]
Format settings, BVOP : 1
Format settings, QPel : No
Format settings, GMC : No warppoints
Format settings, Matrix : Custom
Codec ID : XVID
Codec ID/Hint : XviD
Duration : 1h 28mn
Bit rate : 1 759 Kbps
Width : 720 pixels
Height : 304 pixels
Display aspect ratio : 2.35:1
Frame rate : 24.000 fps
Color space : YUV
Chroma subsampling : 4:2:0
Bit depth : 8 bits
Scan type : Progressive
Compression mode : Lossy
Bits/(Pixel*Frame) : 0.335
Stream size : 1.09 GiB (75%)
Writing library : XviD 1.2.1 (UTC 2008-12-04)
Audio #1
ID : 1
Format : AC-3
Format/Info : Audio Coding 3
Mode extension : CM (complete main)
Format settings, Endianness : Big
Codec ID : 2000
Duration : 1h 28mn
Bit rate mode : Constant
Bit rate : 192 Kbps
Channel(s) : 2 channels
Channel positions : Front: L R
Sampling rate : 48.0 KHz
Bit depth : 16 bits
Compression mode : Lossy
Stream size : 122 MiB (8%)
Alignment : Split accross interleaves
Interleave, duration : 42 ms (1.00 video frame)
Interleave, preload duration : 500 ms
Audio #2
ID : 2
Format : AC-3
Format/Info : Audio Coding 3
Mode extension : CM (complete main)
Format settings, Endianness : Big
Codec ID : 2000
Duration : 1h 28mn
Bit rate mode : Constant
Bit rate : 384 Kbps
Channel(s) : 6 channels
Channel positions : Front: L C R, Side: L R, LFE
Sampling rate : 48.0 KHz
Bit depth : 16 bits
Compression mode : Lossy
Stream size : 244 MiB (16%)
Alignment : Split accross interleaves
Interleave, duration : 42 ms (1.00 video frame)
Interleave, preload duration : 500 ms

Скриншоты

If your ratio falls below 0.3, you will not be able to download Torrents! More about the rating.

[erzsebet.pl].t51580.torrent
Torrent: Registered   [ 2017-12-11 02:36 ]

Download .torrent

Download

15 KB

Status: checked
Completed: 16 times
Size: 1.46 GB
terms.php

#1

11-Dec-2017 01:29

[Profile]  [PM] 
Display posts:    

You cannot post new topics in this forum
You cannot reply to topics in this forum
You cannot edit your posts in this forum
You cannot delete your posts in this forum
You cannot vote in polls in this forum
You cannot attach files in this forum
You can download files in this forum
User agreement
For copyright holders
Advertise on this site

Скачайте на халяву через торрент на трекере erzsebet.pl

!ATTENTION!
The site does not give electronic versions of products, and is engaged only in a collecting and cataloguing of the references sent and published at a forum by our readers. If you are the legal owner of any submitted material and do not wish that the reference to it was in our catalogue, contact us and we shall immediately remove her. Files for an exchange on tracker are given by users of a site, and the administration does not bear the responsibility for their maintenance. The request to not fill in the files protected by copyrights, and also files of the illegal maintenance!