Стоун / Stone (Сэнди Харбатт / Sandy Harbutt) [1974, Австралия, боевик, драма, DVDRip] VO (Васька Куролесов)

DL-List and Torrent activity
Size:  1.46 GB   |    Registered:  2 years 10 months   |    Completed:  16 times
Seeders:  3  
 
   
 
 

Max Levien ®

Longevity:
2 years 10 months
Posts:
20374

[Quote] 

Стоун / Stone
Страна: Австралия
Жанр: боевик, драма
Год выпуска: 1974
Продолжительность: 01:29:39
Перевод: Одноголосый закадровый Васька Куролесов по субтитрам Северный
Субтитры: нет
Оригинальная аудиодорожка: нет
Режиссер: Сэнди Харбатт / Sandy Harbutt
В ролях: Кен Шотер, Сэнди Харбатт, Дерек Барнс, Хью Кияс-Бёрн, Роджер Уорд, Винсент Джил, Дьюи Хангерфорд, Джеймс Боулз, Бинди Уильямс и др.
Описание: Одного за другим мотоциклистов из банды байкеров , называющих себя «Гробовщики», начинают убивать. Молодой полицейский Стоун становится членом этой секты сатанистов, чтобы выйти на убийц…
Сэмпл: http://multi-up.com/1089806
Качество видео: DVDRip
Формат видео: AVI
Видео: XviD, 1999 Кбит/с, 720x544, 25.000 fps
Аудио: AC-3, 2 ch, 192 Кбит/с, 48.0 KHz
Совсем немного ненорматива!
Релиз:

MediaInfo

General
Complete name : G:\Stone 1974_KypoJIecoB.avi
Format : AVI
Format/Info : Audio Video Interleave
File size : 1.46 GiB
Duration : 1h 34mn
Overall bit rate : 2 201 Kbps
Writing application : VirtualDubMod 1.5.10.2 (build 2540/release)
Writing library : VirtualDubMod build 2540/release
Video
ID : 0
Format : MPEG-4 Visual
Format profile : Advanced [email protected]
Format settings, BVOP : 1
Format settings, QPel : No
Format settings, GMC : No warppoints
Format settings, Matrix : Default (MPEG)
Codec ID : XVID
Codec ID/Hint : XviD
Duration : 1h 34mn
Bit rate : 1 999 Kbps
Width : 720 pixels
Height : 544 pixels
Display aspect ratio : 4:3
Frame rate : 25.000 fps
Color space : YUV
Chroma subsampling : 4:2:0
Bit depth : 8 bits
Scan type : Progressive
Compression mode : Lossy
Bits/(Pixel*Frame) : 0.204
Stream size : 1.33 GiB (91%)
Writing library : XviD 1.2.1 (UTC 2008-12-04)
Audio
ID : 1
Format : AC-3
Format/Info : Audio Coding 3
Mode extension : CM (complete main)
Format settings, Endianness : Big
Codec ID : 2000
Duration : 1h 34mn
Bit rate mode : Constant
Bit rate : 192 Kbps
Channel(s) : 2 channels
Channel positions : Front: L R
Sampling rate : 48.0 KHz
Compression mode : Lossy
Stream size : 130 MiB (9%)
Alignment : Split accross interleaves
Interleave, duration : 40 ms (1.00 video frame)
Interleave, preload duratio : 500 ms

Скриншот c названием фильма

Скриншоты

If your ratio falls below 0.3, you will not be able to download Torrents! More about the rating.

[erzsebet.pl].t51583.torrent
Torrent: Registered   [ 2017-12-11 02:36 ]

Download .torrent

Download

59 KB

Status: checked
Completed: 16 times
Size: 1.46 GB
terms.php

#1

11-Dec-2017 01:29

[Profile]  [PM] 
Display posts:    

You cannot post new topics in this forum
You cannot reply to topics in this forum
You cannot edit your posts in this forum
You cannot delete your posts in this forum
You cannot vote in polls in this forum
You cannot attach files in this forum
You can download files in this forum
User agreement
For copyright holders
Advertise on this site

Скачайте на халяву через торрент на трекере erzsebet.pl

!ATTENTION!
The site does not give electronic versions of products, and is engaged only in a collecting and cataloguing of the references sent and published at a forum by our readers. If you are the legal owner of any submitted material and do not wish that the reference to it was in our catalogue, contact us and we shall immediately remove her. Files for an exchange on tracker are given by users of a site, and the administration does not bear the responsibility for their maintenance. The request to not fill in the files protected by copyrights, and also files of the illegal maintenance!