Безумная Луна / Сумасшедшая луна / Crazy Moon (Аллан Истмэн / Allan Eastman) [1987, Канада, США, Мелодрама, комедия, DVDRip] VO ("Мир-дружба") + Original Eng

DL-List and Torrent activity
Size:  1.4 GB   |    Registered:  2 years 10 months   |    Completed:  16 times
Seeders:  2  
 
   
 
 

Max Levien ®

Longevity:
2 years 10 months
Posts:
20374

[Quote] 

Безумная Луна / Сумасшедшая луна / Crazy Moon
«Sometimes acting crazy is the only way to stay together»
Страна: Канада, США
Жанр: Мелодрама, комедия
Год выпуска: 1987
Продолжительность: 01:25:46
Перевод: Одноголосый закадровый "Мир-дружба"
Субтитры: нет
Оригинальная аудиодорожка: английский
Режиссер: Аллан Истмэн / Allan Eastman
В ролях: Кифер Сазерленд, Ванесса Вон, Питер Спенс, Кен Поуг, Беверли Мюррэй, Шон МакКэнн, Бронуэн Мэнтел, Терри Хоукс, Гарри Хилл, Барбара Джонс
Описание: История про юношу со странностями, влюбленного в глухую девушку. Большинство считает его странным, не от мира сего, некоторые попросту «больным на голову», в том числе его родной брат, мачеха и даже отец. Она замкнута в кругу таких же, как она. Он пытается отгородиться от всего мира, а она хочет научится лучше говорить, чтобы общаться с другими людьми. Они пытаются помочь друг другу справиться с проблемами, обрести уверенность в себе и найти свое место в этом мире.
Доп. информация: Дорожка с VO ремастерирована, синхронизирована и наложена ale_x2008 при помощи Adobe Audition, Sony Vegas и VirtualDubMod.
За оцифрованную с VHS дорожку благодарим - Glowamy
Релиз
Сэмпл: https://yadi.sk/i/2RRwZaUV3GmMko
Качество видео: DVDRip
Формат видео: AVI
Видео: XviD build 73, 688x528 (1.30:1), 25fps, 1939 kbps avg, 0.21 bit/pixel
Аудио: AC3 Dolby Digital, 48000Hz, 2/0 (L,R) ch (mono), 192.00 kbps avg
Аудио 2: AC3 Dolby Digital, 48000Hz, 2/0 (L,R) ch, 192.00 kbps avg

MediaInfo

Безумная Луна - Crazy Moon [by ale_x2008].avi
Format : AVI
Format/Info : Audio Video Interleave
File size : 1.40 GiB
Duration : 1 h 25 min
Overall bit rate : 2 338 kb/s
Movie name : Безумная Луна - Crazy Moon [by ale_x2008]
Director : by ale_x2008
Writing application : VirtualDubMod 1.5.10.2 (build 2540/release)
Copyright : Edich2
Comment : erzsebet.org
Video
ID : 0
Format : MPEG-4 Visual
Format profile : Advanced [email protected]
Format settings, BVOP : 2
Format settings, QPel : No
Format settings, GMC : No warppoints
Format settings, Matrix : Default (MPEG)
Codec ID : XVID
Codec ID/Hint : XviD
Duration : 1 h 25 min
Bit rate : 1 939 kb/s
Width : 688 pixels
Height : 528 pixels
Display aspect ratio : 4:3
Frame rate : 25.000 FPS
Color space : YUV
Chroma subsampling : 4:2:0
Bit depth : 8 bits
Scan type : Progressive
Compression mode : Lossy
Bits/(Pixel*Frame) : 0.214
Stream size : 1.16 GiB (83%)
Writing library : XviD 73
Audio #1
ID : 1
Format : AC-3
Format/Info : Audio Coding 3
Format settings, Endianness : Big
Codec ID : 2000
Duration : 1 h 25 min
Bit rate mode : Constant
Bit rate : 192 kb/s
Channel(s) : 2 channels
Channel positions : Front: L R
Sampling rate : 48.0 kHz
Frame rate : 31.250 FPS (1536 spf)
Bit depth : 16 bits
Compression mode : Lossy
Stream size : 118 MiB (8%)
Alignment : Split accross interleaves
Interleave, duration : 40 ms (1.00 video frame)
Interleave, preload duratio : 500 ms
Service kind : Complete Main
Audio #2
ID : 2
Format : AC-3
Format/Info : Audio Coding 3
Format settings, Endianness : Big
Codec ID : 2000
Duration : 1 h 25 min
Bit rate mode : Constant
Bit rate : 192 kb/s
Channel(s) : 2 channels
Channel positions : Front: L R
Sampling rate : 48.0 kHz
Frame rate : 31.250 FPS (1536 spf)
Bit depth : 16 bits
Compression mode : Lossy
Stream size : 118 MiB (8%)
Alignment : Split accross interleaves
Interleave, duration : 40 ms (1.00 video frame)
Interleave, preload duratio : 500 ms
Service kind : Complete Main

Скриншоты


If your ratio falls below 0.3, you will not be able to download Torrents! More about the rating.

[erzsebet.pl].t51588.torrent
Torrent: Registered   [ 2017-12-11 02:36 ]

Download .torrent

Download

14 KB

Status: checked
Completed: 16 times
Size: 1.4 GB
terms.php

#1

11-Dec-2017 01:29

[Profile]  [PM] 
Display posts:    

You cannot post new topics in this forum
You cannot reply to topics in this forum
You cannot edit your posts in this forum
You cannot delete your posts in this forum
You cannot vote in polls in this forum
You cannot attach files in this forum
You can download files in this forum
User agreement
For copyright holders
Advertise on this site

Скачайте на халяву через торрент на трекере erzsebet.pl

!ATTENTION!
The site does not give electronic versions of products, and is engaged only in a collecting and cataloguing of the references sent and published at a forum by our readers. If you are the legal owner of any submitted material and do not wish that the reference to it was in our catalogue, contact us and we shall immediately remove her. Files for an exchange on tracker are given by users of a site, and the administration does not bear the responsibility for their maintenance. The request to not fill in the files protected by copyrights, and also files of the illegal maintenance!