Площадка для игр дьявола / Прибежище Дьявола / The Devil's Playground (Фред Скеписи / Fred Schepisi) [1976, Австралия, Драма, DVDRip] VO + Original Eng

DL-List and Torrent activity
Size:  1.45 GB   |    Registered:  2 years 10 months   |    Completed:  16 times
Seeders:  2  
 
   
 
 

Max Levien ®

Longevity:
2 years 10 months
Posts:
20374

[Quote] 

Площадка для игр дьявола / Прибежище Дьявола / The Devil's Playground
Страна: Австралия
Жанр: Драма
Год выпуска: 1976
Продолжительность: 01:34:58
Перевод: Одноголосый закадровый
Субтитры: нет
Оригинальная аудиодорожка: английский
Режиссер: Фред Скеписи / Fred Schepisi
В ролях: Артур Дигнам, Ник Тейт, Саймон Бурк, Чарльз МакКаллум, Джон Фроули, Джонатан Харди, Джерри Дагган, Питер Кокс, Джон Дидрих, Томас Кенэлли, Шейла Флоранс, Алан Чинис, Ричард Морган, Роуэн Карри, Гэри Пикстон, Майкл Дэвид, Уоррен Коулман, Марк Гау, Эндрю Курт, Бретт Мёрфи, Уэйн Комли
Описание: Ученики католической семинарии вступили в рискованный период полового созревания, когда вскипевшие гормоны ударяют в голову, искушая соблазнами и подвергая сомнению правильность избранного ими пути. Одни ударяются в религиозный фанатизм, другие — пытаются во всём разобраться. Таким ищущим семинаристом оказывается Том Аллен, пытающийся свежим взглядом критически оценить рациональность церковных правил.
Доп. информация:
Релиз от: exkinoray
Автор рипа: olegek70
Сэмпл: http://multi-up.com/871256
Качество видео: DVDRip
Формат видео: AVI
Видео: MPEG4, XviD, 720x400 (16:9), 25.000 fps, 1 731 Kbps (0.240 bit/pixel)
Аудио: AC-3, 48.0 KHz, 2 ch, 192 Kbps, CBR VO
Аудио 2: AC-3, 48.0 KHz, 2 ch, 256 Kbps, CBR Original Eng

MediaInfo

Общее
Полное имя : C:\Users\Тоха\Downloads\Plowadka.dlja.igr.djavola.1976.XviD.DVDRip.olegek70.avi
Формат : AVI
Формат/Информация : Audio Video Interleave
Размер файла : 1,45 Гбайт
Продолжительность : 1 ч. 34 м.
Общий поток : 2193 Кбит/сек
Программа кодирования : VirtualDubModRus 1.5.10.2 (build 2542/release)
Библиотека кодирования : VirtualDubMod build 2542/release
Видео
Идентификатор : 0
Формат : MPEG-4 Visual
Профиль формата : Advanced [email protected]
Параметр BVOP формата : 4
Параметр QPel формата : Нет
Параметр GMC формата : Без точки перехода
Параметр матрицы формата : Default (MPEG)
Идентификатор кодека : XVID
Идентификатор кодека/Подсказка : XviD
Продолжительность : 1 ч. 34 м.
Битрейт : 1731 Кбит/сек
Ширина : 720 пикселей
Высота : 400 пикселей
Соотношение сторон : 16:9
Частота кадров : 25,000 кадров/сек
Цветовое пространство : YUV
Субдискретизация насыщенности : 4:2:0
Битовая глубина : 8 бит
Тип развёртки : Прогрессивная
Метод сжатия : С потерями
Бит/(Пиксели*Кадры) : 0.240
Размер потока : 1,15 Гбайт (79%)
Библиотека кодирования : XviD 1.2.1 (UTC 2008-12-04)
Аудио #1
Идентификатор : 1
Формат : AC-3
Формат/Информация : Audio Coding 3
Расширение режима : CM (complete main)
Параметр Endianness формата : Big
Идентификатор кодека : 2000
Продолжительность : 1 ч. 34 м.
Вид битрейта : Постоянный
Битрейт : 192 Кбит/сек
Каналы : 2 канала
Расположение каналов : Front: L R
Частота : 48,0 КГц
Битовая глубина : 16 бит
Метод сжатия : С потерями
Размер потока : 130 Мбайт (9%)
Выравнивание : Разделение по промежуткам
Продолжительность промежутка : 40 мс. (1,00 видеокадр)
Время предзагрузки промежутка : 500 мс.
Аудио #2
Идентификатор : 2
Формат : AC-3
Формат/Информация : Audio Coding 3
Расширение режима : CM (complete main)
Параметр Endianness формата : Big
Идентификатор кодека : 2000
Продолжительность : 1 ч. 34 м.
Вид битрейта : Постоянный
Битрейт : 256 Кбит/сек
Каналы : 2 канала
Расположение каналов : Front: L R
Частота : 48,0 КГц
Битовая глубина : 16 бит
Метод сжатия : С потерями
Размер потока : 174 Мбайт (12%)
Выравнивание : Разделение по промежуткам
Продолжительность промежутка : 40 мс. (1,00 видеокадр)
Время предзагрузки промежутка : 500 мс.

Скриншоты

If your ratio falls below 0.3, you will not be able to download Torrents! More about the rating.

[erzsebet.pl].t51591.torrent
Torrent: Registered   [ 2017-12-11 02:36 ]

Download .torrent

Download

15 KB

Status: checked
Completed: 16 times
Size: 1.45 GB
terms.php

#1

11-Dec-2017 01:29

[Profile]  [PM] 
Display posts:    

You cannot post new topics in this forum
You cannot reply to topics in this forum
You cannot edit your posts in this forum
You cannot delete your posts in this forum
You cannot vote in polls in this forum
You cannot attach files in this forum
You can download files in this forum
User agreement
For copyright holders
Advertise on this site

Скачайте на халяву через торрент на трекере erzsebet.pl

!ATTENTION!
The site does not give electronic versions of products, and is engaged only in a collecting and cataloguing of the references sent and published at a forum by our readers. If you are the legal owner of any submitted material and do not wish that the reference to it was in our catalogue, contact us and we shall immediately remove her. Files for an exchange on tracker are given by users of a site, and the administration does not bear the responsibility for their maintenance. The request to not fill in the files protected by copyrights, and also files of the illegal maintenance!