Правосудие Стила / Стальная Справедливость / Steele Justice (Роберт Борис / Robert Boris) [1987, США, боевик, криминал, драма, HDTVRip-AVC] DVO (НТВ+) + DVO (СВ-Дубль) + Original Eng

DL-List and Torrent activity
Size:  2.16 GB   |    Registered:  2 years 10 months   |    Completed:  16 times
Seeders:  3  
 
   
 
 

Max Levien ®

Longevity:
2 years 10 months
Posts:
20374

[Quote] 

Правосудие Стила / Стальная Справедливость / Steele Justice
Страна: США
Студия: Atlantic Entertainment Group
Жанр: боевик, криминал, драма
Год выпуска: 1987
Продолжительность: 01:32:43
Перевод 1: Профессиональный (двухголосый закадровый) НТВ+
Перевод 2: Профессиональный (двухголосый закадровый) СВ-Дубль
Субтитры: нет
Оригинальная аудиодорожка: английский
Режиссер: Роберт Борис / Robert Boris
В ролях: Мартин Коув, Села Уорд, Ронни Кокс, Берни Кейси, Джозеф Кампанелла, Сун-Тек Он, Жан Ган Бойд, Дэвид Фроман, Сара Дуглас
Описание: Много лет назад, во Вьетнаме, генерал Квон украл золото ЦРУ и попытался убить свидетелей - американских солдат Джона Стила и Ли. Джон спас жизнь Ли. Ли гибнет через много лет, в мирное время. Наркобанда «Черные тигры «расстреляла Ли и всю его семью, потому что Ли был полицейским, а «Тигры» устанавливают свои порядки. Конечно, Джон Стил будет мстить за друга. Он не знает, что бандой «Черных тигров» руководит его старый знакомый - бывший генерал, а ныне богатый бизнесмен Квон.
II Сэмпл II IMDB II
Доп. информация:
За исходник спасибо Mirmekiy
За дорогу СВ-Дубль (ТВ6) спасибо JUSTKANT
Перевод НТВ+ записан с т/к MGM HD
Цитата:
За запись перевода с телеканала ТВ6 в 90-х годах через видеомагнитофон и оцифровку с видеокассеты большое спасибо Sp1end1d. Перевод ТВ6 записан не до конца - начиная с 01:29:35 вставлен Визгунов.
Качество видео: HDTVRip-AVC
Формат видео: MKV
Видео: AVC / 1136x640 / 16:9 / 25.0fps / Bit rate 2730Kbps / b/p 0.150
Аудио 1: AC3 / 48.0 KHz / 2ch. / 192kbps / rus / dvo / НТВ+
Аудио 2: AC3 / 48.0 KHz / 2ch. / 192kbps / rus / dvo / СВ-Дубль
Аудио 3: AC3 / 48.0 KHz / 2ch. / 224kbps / eng

MediaInfo

Общее
Уникальный идентификатор : 250720637366604356750703864008601300344 (0xBC9F09CF35B14FB19F31C370F454ED78)
Полное имя : D:\torrent\Steele.Justice.1987.HDTVRip-AVC_by_vedigo.mkv
Формат : Matroska
Версия формата : Version 4 / Version 2
Размер файла : 2,16 Гбайт
Продолжительность : 1 ч. 32 м.
Общий поток : 3338 Кбит/сек
Дата кодирования : UTC 2015-07-18 11:18:13
Программа кодирования : mkvmerge v8.1.0 ('Psychedelic Postcard') 64bit
Библиотека кодирования : libebml v1.3.1 + libmatroska v1.4.2
DURATION : 01:32:43.904000000
NUMBER_OF_FRAMES : 173872
NUMBER_OF_BYTES : 155789312
_STATISTICS_WRITING_APP : mkvmerge v8.1.0 ('Psychedelic Postcard') 64bit
_STATISTICS_WRITING_DATE_UTC : 2015-07-18 11:18:13
_STATISTICS_TAGS : BPS DURATION NUMBER_OF_FRAMES NUMBER_OF_BYTES
Видео
Идентификатор : 1
Формат : AVC
Формат/Информация : Advanced Video Codec
Профиль формата : [email protected]
Параметр CABAC формата : Да
Параметр ReFrames формата : 11 кадров
Идентификатор кодека : V_MPEG4/ISO/AVC
Продолжительность : 1 ч. 32 м.
Битрейт : 2730 Кбит/сек
Ширина : 1136 пикселей
Высота : 640 пикселей
Соотношение сторон : 16:9
Режим частоты кадров : Постоянный
Частота кадров : 25,000 кадров/сек
Цветовое пространство : YUV
Субдискретизация насыщенности : 4:2:0
Битовая глубина : 8 бит
Тип развёртки : Прогрессивная
Бит/(Пиксели*Кадры) : 0.150
Размер потока : 1,73 Гбайт (80%)
Заголовок : Steele.Justice.1987.HDTVRip-AVC_by_vedigo
Библиотека кодирования : x264 core 146 r2538 121396c
Настройки программы : cabac=1 / ref=11 / deblock=1:-3:-3 / analyse=0x3:0x133 / me=umh / subme=11 / psy=1 / psy_rd=1.00:0.10 / mixed_ref=1 / me_range=36 / chroma_me=1 / trellis=2 / 8x8dct=1 / cqm=0 / deadzone=21,11 / fast_pskip=0 / chroma_qp_offset=-3 / threads=12 / lookahead_threads=2 / sliced_threads=0 / nr=0 / decimate=1 / interlaced=0 / bluray_compat=0 / constrained_intra=0 / bframes=8 / b_pyramid=2 / b_adapt=2 / b_bias=0 / direct=3 / weightb=1 / open_gop=0 / weightp=2 / keyint=250 / keyint_min=25 / scenecut=40 / intra_refresh=0 / rc_lookahead=40 / rc=2pass / mbtree=0 / bitrate=2730 / ratetol=1.0 / qcomp=0.60 / qpmin=0 / qpmax=69 / qpstep=4 / cplxblur=20.0 / qblur=0.5 / vbv_maxrate=50000 / vbv_bufsize=62500 / nal_hrd=none / filler=0 / ip_ratio=1.40 / pb_ratio=1.30 / aq=1:1.00
Default : Да
Forced : Нет
DURATION : 01:32:43.920000000
NUMBER_OF_FRAMES : 139098
NUMBER_OF_BYTES : 1897259413
_STATISTICS_WRITING_APP : mkvmerge v8.1.0 ('Psychedelic Postcard') 64bit
_STATISTICS_WRITING_DATE_UTC : 2015-07-18 11:18:13
_STATISTICS_TAGS : BPS DURATION NUMBER_OF_FRAMES NUMBER_OF_BYTES
Аудио #1
Идентификатор : 2
Формат : AC-3
Формат/Информация : Audio Coding 3
Расширение режима : CM (complete main)
Параметр Endianness формата : Big
Идентификатор кодека : A_AC3
Продолжительность : 1 ч. 32 м.
Вид битрейта : Постоянный
Битрейт : 192 Кбит/сек
Каналы : 2 канала
Расположение каналов : Front: L R
Частота : 48,0 КГц
Метод сжатия : С потерями
Размер потока : 127 Мбайт (6%)
Заголовок : dvo @ НТВ+
Язык : Russian
Default : Да
Forced : Нет
Аудио #2
Идентификатор : 3
Формат : AC-3
Формат/Информация : Audio Coding 3
Расширение режима : CM (complete main)
Параметр Endianness формата : Big
Идентификатор кодека : A_AC3
Продолжительность : 1 ч. 32 м.
Вид битрейта : Постоянный
Битрейт : 192 Кбит/сек
Каналы : 2 канала
Расположение каналов : Front: L R
Частота : 48,0 КГц
Метод сжатия : С потерями
Размер потока : 127 Мбайт (6%)
Заголовок : dvo @ СВ-Дубль
Язык : Russian
Default : Нет
Forced : Нет
Аудио #3
Идентификатор : 4
Формат : AC-3
Формат/Информация : Audio Coding 3
Расширение режима : CM (complete main)
Параметр Endianness формата : Big
Идентификатор кодека : A_AC3
Продолжительность : 1 ч. 32 м.
Вид битрейта : Постоянный
Битрейт : 224 Кбит/сек
Каналы : 2 канала
Расположение каналов : Front: L R
Частота : 48,0 КГц
Метод сжатия : С потерями
Размер потока : 149 Мбайт (7%)
Заголовок : original
Язык : English
Default : Нет
Forced : Нет

Скриншот c названием фильма

Скриншоты


If your ratio falls below 0.3, you will not be able to download Torrents! More about the rating.

[erzsebet.pl].t51593.torrent
Torrent: Registered   [ 2017-12-11 02:36 ]

Download .torrent

Download

11 KB

Status: checked
Completed: 16 times
Size: 2.16 GB
terms.php

#1

11-Dec-2017 01:29

[Profile]  [PM] 
Display posts:    

You cannot post new topics in this forum
You cannot reply to topics in this forum
You cannot edit your posts in this forum
You cannot delete your posts in this forum
You cannot vote in polls in this forum
You cannot attach files in this forum
You can download files in this forum
User agreement
For copyright holders
Advertise on this site

Скачайте на халяву через торрент на трекере erzsebet.pl

!ATTENTION!
The site does not give electronic versions of products, and is engaged only in a collecting and cataloguing of the references sent and published at a forum by our readers. If you are the legal owner of any submitted material and do not wish that the reference to it was in our catalogue, contact us and we shall immediately remove her. Files for an exchange on tracker are given by users of a site, and the administration does not bear the responsibility for their maintenance. The request to not fill in the files protected by copyrights, and also files of the illegal maintenance!