Да здравствуют привидения! /Да здравствуют духи! / At' ziji duchove! (Олдржих Липский / Oldrich Lipsky) [1977, Чехословакия, Комедия, приключения, детский, DVDRip] Sub rus

DL-List and Torrent activity
Size:  700 MB   |    Registered:  2 years 10 months   |    Completed:  16 times
Seeders:  3  
 
   
 
 

Max Levien ®

Longevity:
2 years 10 months
Posts:
20374

[Quote] 

Да здравствуют привидения! / At' ziji duchove!
Страна: Чехословакия
Жанр: Комедия, приключения, детский
Год выпуска: 1977
Продолжительность: 01:20:47
Перевод: Субтитры
Субтитры: русские
Оригинальная аудиодорожка: Чешский
Режиссер: Олдржих Липский / Oldrich Lipsky
В ролях: Петр Стары, Томаш Голы, Игорь Нахтигал, Давид Влчек, Ладисав Шимек и др.
Описание: Музыкальная сказка о детях, решивших помочь призраку средневекового рыцаря и его дочери отремонтировать их замок и не допустить превращения его в сельскохозяйственный объект.
Качество видео: DVDRip
Формат видео: AVI
Видео: XviD MPEG-4, 640 x 480, 1065 Kbps, 25.000 fps
Аудио: MPEG-1 Audio layer 3, 128 Kbps CBR, 2 ch, 48 KHz
Формат субтитров: softsub (SRT)-Релиз: Кинопортал Близзард
Перевод: Ревущий Лев и Ромка-

Пример субтитров

733
00:55:31,120 --> 00:55:33,760
Председатель хочет, чтобы рыцарь
присоединился к строительной деятельности
734
00:55:36,400 --> 00:55:38,400
Я тщательно изучил это
735
00:55:39,280 --> 00:55:43,240
Рыцарь Вильям Бритник бритницкий
жил в пятнадцатом столетии,
736
00:55:43,800 --> 00:55:47,200
рано овдовел и остался один с дочерью...
737
00:55:47,640 --> 00:55:49,600
- Леонтиной.
- Леонтиной.
738
00:55:50,240 --> 00:55:52,640
Так что они из другого мира,
739
00:55:52,960 --> 00:55:56,840
сверхъестественные существа,
которых нет на самом деле
740
00:55:58,320 --> 00:56:00,120
И которых я видел своими глазами
741
00:56:01,720 --> 00:56:03,520
Пан аптекарь думает, что это были
742
00:56:03,600 --> 00:56:06,960
галлюцинации, видения, как последствие
743
00:56:07,040 --> 00:56:09,060
принятия лекарства от низкого давления

Отчёт MediaInfo

General
Complete name : D:\Фильмы\At ziji duchove\At ziji duchove.avi
Format : AVI
Format/Info : Audio Video Interleave
File size : 700 MiB
Duration : 1h 20mn
Overall bit rate : 1 211 Kbps
Writing application : VirtualDubMod 1.5.4.1 (build 2178/release)
Writing library : VirtualDubMod build 2178/release
Video #0
ID : 0
Format : MPEG-4 Visual
Format profile : Advanced [email protected]
Format settings, BVOP : 1
Format settings, QPel : No
Format settings, GMC : No warppoints
Format settings, Matrix : Custom
Codec ID : XVID
Codec ID/Hint : XviD
Duration : 1h 20mn
Bit rate : 1 076 Kbps
Width : 640 pixels
Height : 480 pixels
Display aspect ratio : 4:3
Frame rate : 25.000 fps
Color space : YUV
Chroma subsampling : 4:2:0
Bit depth : 8 bits
Scan type : Progressive
Compression mode : Lossy
Bits/(Pixel*Frame) : 0.140
Stream size : 621 MiB (89%)
Writing library : XviD 1.1.2 (UTC 2006-11-01)
Audio #1
ID : 1
Format : MPEG Audio
Format version : Version 1
Format profile : Layer 3
Mode : Joint stereo
Mode extension : MS Stereo
Codec ID : 55
Codec ID/Hint : MP3
Duration : 1h 20mn
Bit rate mode : Constant
Bit rate : 128 Kbps
Channel(s) : 2 channels
Sampling rate : 48.0 KHz
Compression mode : Lossy
Stream size : 74.0 MiB (11%)
Alignment : Aligned on interleaves
Interleave, duration : 80 ms (2.00 video frames)
Interleave, preload duration : 504 ms
Writing library : LAME3.97b
Encoding settings : -m j -V 4 -q 2 -lowpass 17 -b 128
Language : Czech

Скриншот c названием фильма

Скриншоты

If your ratio falls below 0.3, you will not be able to download Torrents! More about the rating.

[erzsebet.pl].t51595.torrent
Torrent: Registered   [ 2017-12-11 02:36 ]

Download .torrent

Download

14 KB

Status: checked
Completed: 16 times
Size: 700 MB
terms.php

#1

11-Dec-2017 01:29

[Profile]  [PM] 
Display posts:    

You cannot post new topics in this forum
You cannot reply to topics in this forum
You cannot edit your posts in this forum
You cannot delete your posts in this forum
You cannot vote in polls in this forum
You cannot attach files in this forum
You can download files in this forum
User agreement
For copyright holders
Advertise on this site

Скачайте на халяву через торрент на трекере erzsebet.pl

!ATTENTION!
The site does not give electronic versions of products, and is engaged only in a collecting and cataloguing of the references sent and published at a forum by our readers. If you are the legal owner of any submitted material and do not wish that the reference to it was in our catalogue, contact us and we shall immediately remove her. Files for an exchange on tracker are given by users of a site, and the administration does not bear the responsibility for their maintenance. The request to not fill in the files protected by copyrights, and also files of the illegal maintenance!