Близнецы / Twins (Айвен Райтмен / Ivan Reitman) [1988, США, Комедия, DVDRip] MVO + original

DL-List and Torrent activity
Size:  1.37 GB   |    Registered:  2 years 10 months   |    Completed:  16 times
Seeders:  2  
 
   
 
 

Max Levien ®

Longevity:
2 years 10 months
Posts:
20374

[Quote] 

Близнецы / Twins
Год выпуска: 1988
Страна: США
Жанр: Комедия
Продолжительность: 1:42
Перевод: Профессиональный (многоголосый, закадровый) + оригинальная звуковая дорожка
Русские субтитры: нет

Режиссер: Айвен Райтмен / Ivan Reitman
В ролях: Арнольд Шварценеггер / Arnold Schwarzenegger, Дэнни ДеВито / Danny DeVito, Келли Престон / Kelly Preston, Кэри-Хироюки Тагава / Cary-Hiroyuki Tagawa, Хезер Грэм / Heather Graham, Дэвид Карузо / David Caruso
Описание: Неожиданный оборот принимает генетический эксперимент, во время которого новорожденных близнецов, которые, кстати, совершенно не похожи друг на друга, разлучают на долгие годы. Несчастные братья наконец встречаются: Джулиус, образованный, но совершенно незнающий жизни гигант с добрым сердцем, и Винсент, коротышка с неистребимой жаждой денег и женщин. В компании подружек и преследующего их наемного убийцы братья отправляются в путешествие по стране на поиски своей матери, и в конце концов находят нечто большее...
Суперзвезды Арнольд Шварценеггер и Дэнни Де Вито в умопомрачительной приключенческой комедии.
kinopoisk: 7.4/10
imdb: 5.9/10

-
Рип вот с этого DVD-9:
http://erzsebet.org/forum/viewtopic.php?t=1418961
На замену вот этим рипам:
http://erzsebet.org/forum/viewtopic.php?t=2261836
http://erzsebet.org/forum/viewtopic.php?t=464266
Чем мой рип лучше?
1. Первый конкурент имеет статус сомнительно, с комментарием, что картинка периодически прерывается и мутновата;
2. Второй конкурент не идёт на бытовых плеерах из-за включённого GMC;
3. Присутствует оригинальная звуковая дорожка.
Внимание, обе дорожки в MP3, потому что на исходном DVD нет 5.1 дорожек, а есть только stereo.
Качество: DVDRip
Формат: AVI
Видео кодек: XviD
Аудио кодек: MP3
Видео: XviD 1.2.1, 720x384 [1.88:1], 25 fps, ~1657kbps, 0.24 b/pf
Аудио1: Russian MP3 Lame avg. ~128 kbps, 48khz, 2ch
Аудио2: Enlgish MP3 Lame avg. ~128 kbps, 48khz, 2ch

Семпл

http://depositfiles.com/files/7b1inwimv ~8.5mb
Не обращайте внимание, что семпл в mkv, просто мне было удобно использовать mkvmegre чтобы разрезать файл.

MediaInfo

General
Format : AVI
Format/Info : Audio Video Interleave
File size : 1.37 GiB
Duration : 1h 42mn
Overall bit rate : 1 905 Kbps
Writing application : VirtualDubMod 1.5.10.2 (build 2540/release)
Writing library : VirtualDubMod build 2540/release
Video
ID : 0
Format : MPEG-4 Visual
Format profile : [email protected]
Format settings, BVOP : Yes
Format settings, QPel : No
Format settings, GMC : No warppoints
Format settings, Matrix : Default (H.263)
Codec ID : XVID
Codec ID/Hint : XviD
Duration : 1h 42mn
Bit rate : 1 657 Kbps
Width : 720 pixels
Height : 384 pixels
Display aspect ratio : 1.875
Frame rate : 25.000 fps
Resolution : 24 bits
Colorimetry : 4:2:0
Scan type : Progressive
Bits/(Pixel*Frame) : 0.240
Stream size : 1.19 GiB (87%)
Writing library : XviD 1.2.1 (UTC 2008-12-04)
Audio #1
ID : 1
Format : MPEG Audio
Format version : Version 1
Format profile : Layer 3
Format_Settings_Mode : Joint stereo / MS Stereo
Codec ID : 55
Codec ID/Hint : MP3
Duration : 1h 42mn
Bit rate mode : Variable
Bit rate : 115 Kbps
Nominal bit rate : 128 Kbps
Channel(s) : 2 channels
Sampling rate : 48.0 KHz
Resolution : 16 bits
Stream size : 84.6 MiB (6%)
Alignment : Aligned on interleaves
Interleave, duration : 24 ms (0.60 video frame)
Interleave, preload duration : 410 ms
Writing library : LAME3.98r
Encoding settings : -m j -V 4 -q 2 -lowpass 17 --abr 128
Audio #2
ID : 2
Format : MPEG Audio
Format version : Version 1
Format profile : Layer 3
Format_Settings_Mode : Joint stereo / MS Stereo
Codec ID : 55
Codec ID/Hint : MP3
Duration : 1h 42mn
Bit rate mode : Variable
Bit rate : 112 Kbps
Nominal bit rate : 128 Kbps
Channel(s) : 2 channels
Sampling rate : 48.0 KHz
Resolution : 16 bits
Stream size : 82.5 MiB (6%)
Alignment : Aligned on interleaves
Interleave, duration : 24 ms (0.60 video frame)
Interleave, preload duration : 420 ms
Writing library : LAME3.98r
Encoding settings : -m j -V 4 -q 2 -lowpass 17 --abr 128

Скриншоты








Внимание! 12-10-2009 торрент перезалит. Дорожки перемуксаны VirtualDubMod вместо бывшего AVI-mux, т.к. последний некорректно воспринимается некоторыми железными плеерами.

If your ratio falls below 0.3, you will not be able to download Torrents! More about the rating.

[erzsebet.pl].t51599.torrent
Torrent: Registered   [ 2017-12-11 02:36 ]

Download .torrent

Download

14 KB

Status: checked
Completed: 16 times
Size: 1.37 GB
terms.php

#1

11-Dec-2017 01:29

[Profile]  [PM] 
Display posts:    

You cannot post new topics in this forum
You cannot reply to topics in this forum
You cannot edit your posts in this forum
You cannot delete your posts in this forum
You cannot vote in polls in this forum
You cannot attach files in this forum
You can download files in this forum
User agreement
For copyright holders
Advertise on this site

Скачайте на халяву через торрент на трекере erzsebet.pl

!ATTENTION!
The site does not give electronic versions of products, and is engaged only in a collecting and cataloguing of the references sent and published at a forum by our readers. If you are the legal owner of any submitted material and do not wish that the reference to it was in our catalogue, contact us and we shall immediately remove her. Files for an exchange on tracker are given by users of a site, and the administration does not bear the responsibility for their maintenance. The request to not fill in the files protected by copyrights, and also files of the illegal maintenance!