Избранные / The Chosen (Джереми Каган / Jeremy Kagan) [1981, США, драма, DVDRip] VO + Sub Rus + Original Eng

DL-List and Torrent activity
Size:  1.6 GB   |    Registered:  2 years 10 months   |    Completed:  16 times
Seeders:  2   Leechers:  1   Show peers in full details
 
   
 
 

Max Levien ®

Longevity:
2 years 10 months
Posts:
20374

[Quote] 

Избранные / The Chosen
Страна: США
Жанр: драма
Год выпуска: 1981
Продолжительность: 01:47:04
Перевод: Одноголосый закадровый
Субтитры: русские
Оригинальная аудиодорожка: английский
Режиссер: Джереми Каган / Jeremy Kagan
В ролях: Максимилиан Шелл / Maximilian Schell, Род Стайгер / Rod Steiger, Робби Бенсон / Robby Benson, Бэрри Миллер / Barry Miller, Хильди Брукс / Hildy Brooks, Кэте Файн / Kaethe Fine, Рон Рифкин / Ron Rifkin, Роберт Джон Бёрк / Robert John Burke, Лонни Прайс / Lonny Price, Ивен Хэндлер / Evan Handler
Описание: Режиссер Джереми Пол Каган снял убедившую многих экранизацию частично автобиографического романа американского еврейского писателя Хаима Потока, который рассказал о дружбе двух подростков, живущих в Бруклине в годы второй мировой войны.
Оба они - евреи, но один из них, Реувен, - сын профессора-сиониста, а у другого, Дэнни, отец - раввин-хасид, который воспитывает детей согласно строгим традициям и с определенной дистанции, и ему не очень нравится, с кем водится сын.
Доп. информация: Рип сделан с DVD5, найденном в сети. Русская озвучка взята из этой раздачи, однако в ней был поправлен громкостной баланс и вырезан узкополосным фильтром статический шум (зудение). Отдельными файлами в раздаче есть ориг. дорожка и русские субтитры.
Сравнение скриншотов: http://screenshotcomparison.com/comparison/161520
Качество видео: DVDRip
Формат видео: AVI
Видео: Xvid 656x480 23.976fps 1744kbps
Аудио: русский, Dolby AC3 48000Hz stereo 192kbps
Аудио 2: английский, Dolby AC3 48000Hz stereo 192kbps
Формат субтитров: softsub (SRT)

MediaInfo

General
Complete name : The Chosen 1981\The Chosen.avi
Format : AVI
Format/Info : Audio Video Interleave
File size : 1.46 GiB
Duration : 1h 47mn
Overall bit rate : 1 946 Kbps
Writing application : VirtualDubMod 1.5.10.2 (build 2540/release)
Writing library : VirtualDubMod build 2540/release
Video
ID : 0
Format : MPEG-4 Visual
Format profile : Advanced [email protected]
Format settings, BVOP : Yes
Format settings, QPel : No
Format settings, GMC : No warppoints
Format settings, Matrix : Default (MPEG)
Codec ID : XVID
Codec ID/Hint : XviD
Duration : 1h 47mn
Bit rate : 1 745 Kbps
Width : 656 pixels
Height : 480 pixels
Display aspect ratio : 4:3
Frame rate : 23.976 fps
Color space : YUV
Chroma subsampling : 4:2:0
Bit depth : 8 bits
Scan type : Progressive
Bits/(Pixel*Frame) : 0.231
Stream size : 1.31 GiB (90%)
Writing library : XviD 64
Audio
ID : 1
Format : AC-3
Format/Info : Audio Coding 3
Mode extension : CM (complete main)
Codec ID : 2000
Duration : 1h 47mn
Bit rate mode : Constant
Bit rate : 192 Kbps
Channel(s) : 2 channels
Channel positions : Front: L R
Sampling rate : 48.0 KHz
Bit depth : 16 bits
Stream size : 147 MiB (10%)
Alignment : Split accross interleaves
Interleave, duration : 42 ms (1.00 video frame)
Interleave, preload duration : 500 ms

Скриншот c названием фильма

Скриншоты

If your ratio falls below 0.3, you will not be able to download Torrents! More about the rating.

[erzsebet.pl].t51604.torrent
Torrent: Registered   [ 2017-12-11 02:36 ]

Download .torrent

Download

17 KB

Status: checked
Completed: 16 times
Size: 1.6 GB
terms.php

#1

11-Dec-2017 01:29

[Profile]  [PM] 
Display posts:    

You cannot post new topics in this forum
You cannot reply to topics in this forum
You cannot edit your posts in this forum
You cannot delete your posts in this forum
You cannot vote in polls in this forum
You cannot attach files in this forum
You can download files in this forum
User agreement
For copyright holders
Advertise on this site

Скачайте на халяву через торрент на трекере erzsebet.pl

!ATTENTION!
The site does not give electronic versions of products, and is engaged only in a collecting and cataloguing of the references sent and published at a forum by our readers. If you are the legal owner of any submitted material and do not wish that the reference to it was in our catalogue, contact us and we shall immediately remove her. Files for an exchange on tracker are given by users of a site, and the administration does not bear the responsibility for their maintenance. The request to not fill in the files protected by copyrights, and also files of the illegal maintenance!