Смерти вопреки / Нико 2 / Hard to Kill (Брюс Мэлмат / Bruce Malmuth) [1990, США, боевик, триллер, драма, криминал, VHSRip] [FullScreen] AVO (Андрей Гаврилов)

DL-List and Torrent activity
Size:  1.37 GB   |    Registered:  2 years 10 months   |    Completed:  16 times
Seeders:  2  
 
   
 
 

Max Levien ®

Longevity:
2 years 10 months
Posts:
20374

[Quote] 

Смерти вопреки / Нико 2 / Hard to Kill
[FullScreen]
Страна: США
Жанр: боевик, триллер, драма, криминал
Год выпуска: 1990
Продолжительность: 01:31:42
Перевод: Авторский (одноголосый закадровый) Андрей Гаврилов
Субтитры: нет
Режиссер: Брюс Мэлмат / Bruce Malmuth
В ролях: Стивен Сигал, Келли ЛеБрок, Уильям Сэдлер, Фредерик Коффин, Бонни Барроуз, Эндрю Блок, Брэнском Ричмонд, Чарльз Босуэлл, Зэкари Розенкранц, Лу Битти мл
Описание: Аннотация от alenavova
Лейтенанту лос-анджелесской полиции Мэйсону Сторму стычка с людьми гангстера Колабрезе едва не стоила жизни. Бандиты врываются в дом Сторма, убив его жену, сына и фактически его самого, ибо Сторм на несколько лет оказывается в тяжелейшей коме в госпитале. И хотя газеты и знакомые его похоронили, однако его "воскрешение" сразу становится известно мафии. Все дело в том, что за несколько минут до нападения Сторм хорошо упрятал (подальше положишь...) видеопленку с компроматом на местного политика. Правда, эта пленка бравому полицейскому уже не очень-то и нужна, ибо он воплощает в себе и Фемиду и Немезиду - заменяет собой и правосудие и возмездие... Проповедь насилия ради неких возвышенных чувств очень популярная идея для оболванивания: благими намерениями мостится... Особенно, если это красиво подано.
Доп. информация: Оцифровка VHS (личный архив) и получение VHSRip alenavova
Эксклюзив для erzsebet.org. При размещении данного релиза на других сайтах ссылка на автора alenavova обязательна.
Релиз
Сэмпл: https://yadi.sk/i/tXiaAM5wkGhzw
Качество видео: VHSRip
Формат видео: AVI
Видео: 704x528 (1.33:1), 25 fps, XviD build 50 ~1933 kbps avg, 0.21 bit/pixel
Аудио: 48 kHz, AC3 Dolby Digital, 2/0 (L,R) ch, ~192 kbps

MediaInfo

Смерти вопреки - Hard to Kill (by alenavova).avi
Format : AVI
Format/Info : Audio Video Interleave
File size : 1.37 GiB
Duration : 1h 31mn
Overall bit rate : 2 135 Kbps
Movie name : Смерти вопреки - Hard to Kill (by alenavova)
Director : by alenavova
Writing application : VirtualDubMod 1.5.10.3 | www.virtualdub-fr.org || (build 2550/release)
Copyright : Edich2
Comment : erzsebet.org
Video
ID : 0
Format : MPEG-4 Visual
Format profile : Advanced [email protected]
Format settings, BVOP : 1
Format settings, QPel : No
Format settings, GMC : No warppoints
Format settings, Matrix : Custom
Codec ID : XVID
Codec ID/Hint : XviD
Duration : 1h 31mn
Bit rate : 1 934 Kbps
Width : 704 pixels
Height : 528 pixels
Display aspect ratio : 4:3
Frame rate : 25.000 fps
Color space : YUV
Chroma subsampling : 4:2:0
Bit depth : 8 bits
Scan type : Progressive
Compression mode : Lossy
Bits/(Pixel*Frame) : 0.208
Stream size : 1.24 GiB (91%)
Writing library : XviD 1.2.1 (UTC 2008-12-04)
Audio
ID : 1
Format : AC-3
Format/Info : Audio Coding 3
Mode extension : CM (complete main)
Format settings, Endianness : Big
Codec ID : 2000
Duration : 1h 31mn
Bit rate mode : Constant
Bit rate : 192 Kbps
Channel(s) : 2 channels
Channel positions : Front: L R
Sampling rate : 48.0 KHz
Bit depth : 16 bits
Compression mode : Lossy
Stream size : 126 MiB (9%)
Alignment : Split accross interleaves
Interleave, duration : 40 ms (1.00 video frame)
Interleave, preload duration : 500 ms

Скриншоты


If your ratio falls below 0.3, you will not be able to download Torrents! More about the rating.

[erzsebet.pl].t51605.torrent
Torrent: Registered   [ 2017-12-11 02:36 ]

Download .torrent

Download

14 KB

Status: checked
Completed: 16 times
Size: 1.37 GB
terms.php

#1

11-Dec-2017 01:29

[Profile]  [PM] 
Display posts:    

You cannot post new topics in this forum
You cannot reply to topics in this forum
You cannot edit your posts in this forum
You cannot delete your posts in this forum
You cannot vote in polls in this forum
You cannot attach files in this forum
You can download files in this forum
User agreement
For copyright holders
Advertise on this site

Скачайте на халяву через торрент на трекере erzsebet.pl

!ATTENTION!
The site does not give electronic versions of products, and is engaged only in a collecting and cataloguing of the references sent and published at a forum by our readers. If you are the legal owner of any submitted material and do not wish that the reference to it was in our catalogue, contact us and we shall immediately remove her. Files for an exchange on tracker are given by users of a site, and the administration does not bear the responsibility for their maintenance. The request to not fill in the files protected by copyrights, and also files of the illegal maintenance!