Невеста Бугеди / Bride of Boogedy (Оз Скотт / Oz Scott) [1987, США, ужасы, комедия, семейный, DVDRip] DVO (Новый канал)

DL-List and Torrent activity
Size:  1.41 GB   |    Registered:  2 years 10 months   |    Completed:  16 times
Seeders:  3  
 
   
 
 

Max Levien ®

Longevity:
2 years 10 months
Posts:
20374

[Quote] 

Невеста Бугеди / Bride of Boogedy
Год выпуска: 1987
Страна: США
Жанр: ужасы, комедия, семейный
Продолжительность: 01:32:35
Перевод: Профессиональный (двухголосый закадровый) - Новый канал
Субтитры: нет
Режиссер: Оз Скотт / Oz Scott
В ролях: Ричард Мейсер (Carleton Davis), Мими Кеннеди (Eloise Davis), Тэмми Лорен (Julie), Дэвид Фаустино (Corwin Davis), Джошуа Рудой (Aurie Davis), Леонард Фрэй (Walter Witherspoon), Ховард Уитт (Mr. Boogedy), Юджин Леви (Tom Lynch)-Мировая премьера: 1987-Описание: Действие этой комедии происходит в вымышленном городе в Новой Англии, где семья Дэвис встречается со злобным трехсотлетним призраком - мистером Бугеди. Мистер Бугеди вселяется в нескольких человек и старается через них вернуть свой волшебный плащ, чтобы, нести разрушение всему живому. Он также ищет свою возлюбленную Мэрион, и ничто не остановит Бугеди - даже если придется сделать новую Мэрион.-Исходник видео: из -Огромная благодарность:
SuperDVD01 - собственная запись русского перевода с украинского Нового канала через рекордер.
JUSTKANT - синхронизация перевода.-
Рейтинг

MPAA: PG - Рекомендуется присутствие родителей.-Качество видео: DVDRip
Формат видео: AVI -> //Сэмпл//
Видео: XviD, 720x544 (4:3), 23.976 fps, 1958 kbps avg
Аудио:
1 - 48 khz, AC3 Dolby Digital, 2/0 (L,R) ch, ~192 kbps [Новый канал] TVRip-Обновление релиза от 03.04.2016. Причина:
TVRip заменён на DVDRip и дорожка заново пере-синхронизирована уже под него.
Просьба перескачать торрент!

Сравнение скриншотов

Предыдущий TVRip:
http://screenshotcomparison.com/comparison/167898
http://erzsebet.org/forum/viewtopic.php?t=5138307 - перевод такой же.
http://screenshotcomparison.com/comparison/167899

MediaInfo

General
Complete name : I:\Торрент Файлы\Будущие Релизы на Трекере\1.35 - 1.46 и более гб\Невеста Бугеди (Новый канал).avi
Format : AVI
Format/Info : Audio Video Interleave
File size : 1.41 GiB
Duration : 1h 32mn
Overall bit rate : 2 178 Kbps
Writing application : VirtualDubMod 1.5.10.3 | www.virtualdub-fr.org || (build 2550/release)
Writing library : VirtualDubMod build 2550/release
Video
ID : 0
Format : MPEG-4 Visual
Format profile : Advanced [email protected]
Format settings, BVOP : 1
Format settings, QPel : No
Format settings, GMC : No warppoints
Format settings, Matrix : Custom
Codec ID : XVID
Codec ID/Hint : XviD
Duration : 1h 32mn
Bit rate : 1 977 Kbps
Width : 720 pixels
Height : 544 pixels
Display aspect ratio : 4:3
Frame rate : 23.976 (23976/1000) fps
Color space : YUV
Chroma subsampling : 4:2:0
Bit depth : 8 bits
Scan type : Progressive
Compression mode : Lossy
Bits/(Pixel*Frame) : 0.210
Stream size : 1.28 GiB (91%)
Writing library : XviD 1.2.1 (UTC 2008-12-04)
Audio
ID : 1
Format : AC-3
Format/Info : Audio Coding 3
Mode extension : CM (complete main)
Format settings, Endianness : Big
Codec ID : 2000
Duration : 1h 32mn
Bit rate mode : Constant
Bit rate : 192 Kbps
Channel(s) : 2 channels
Channel positions : Front: L R
Sampling rate : 48.0 KHz
Frame rate : 31.250 fps (1536 spf)
Compression mode : Lossy
Stream size : 127 MiB (9%)
Alignment : Split accross interleaves
Interleave, duration : 42 ms (1.00 video frame)
Interleave, preload duratio : 500 ms
Title : Новый канал

Скриншот c названием фильма

Скриншоты

If your ratio falls below 0.3, you will not be able to download Torrents! More about the rating.

[erzsebet.pl].t51610.torrent
Torrent: Registered   [ 2017-12-11 02:36 ]

Download .torrent

Download

15 KB

Status: checked
Completed: 16 times
Size: 1.41 GB
terms.php

#1

11-Dec-2017 01:29

[Profile]  [PM] 
Display posts:    

You cannot post new topics in this forum
You cannot reply to topics in this forum
You cannot edit your posts in this forum
You cannot delete your posts in this forum
You cannot vote in polls in this forum
You cannot attach files in this forum
You can download files in this forum
User agreement
For copyright holders
Advertise on this site

Скачайте на халяву через торрент на трекере erzsebet.pl

!ATTENTION!
The site does not give electronic versions of products, and is engaged only in a collecting and cataloguing of the references sent and published at a forum by our readers. If you are the legal owner of any submitted material and do not wish that the reference to it was in our catalogue, contact us and we shall immediately remove her. Files for an exchange on tracker are given by users of a site, and the administration does not bear the responsibility for their maintenance. The request to not fill in the files protected by copyrights, and also files of the illegal maintenance!