Левиафан / Повелитель собак / Пёс монстр / Leviatán / Monster Dog (Клаудио Фрагассо / Claudio Fragasso) [1984, Испания, США, Пуэрто-Рико, ужасы, BDRip] DVO (НТВ+) + AVO (Андрей Мудров) + Original Eng

DL-List and Torrent activity
Size:  1.69 GB   |    Registered:  2 years 10 months   |    Completed:  16 times
Seeders:  2   Leechers:  1   Show peers in full details
 
   
 
 

Max Levien ®

Longevity:
2 years 10 months
Posts:
20374

[Quote] 

Левиафан / Повелитель собак / Пёс монстр / Leviatán / Monster Dog- Страна: Испания, США, Пуэрто-Рико
Студия: Continental Motion Pictures, M&C Films, Royal Films
Жанр: ужасы
Год выпуска: 1984
Продолжительность: 01:24:23
Перевод: Профессиональный (двухголосый закадровый) НТВ+
Перевод 2: Авторский (одноголосый закадровый) Андрей Мудров
Субтитры: нет
Оригинальная аудиодорожка: английский
Режиссер: Клаудио Фрагассо / Claudio Fragasso
В ролях: Элис Купер, Виктория Вера, Карлос Сантурио, Мария Хосе Сарса, Пепита Джеймс, Эмилио Линдер, Рикардо Паласиос, Луис Малуэнда, Бернабе Барта Барри, Чарли Браво, Фернандо Конде, Фернандо Баэса, Нино Бастида.
Описание: Известный рок-музыкант Винс Рейвен готовится к съёмкам нового клипа и отправляется в далекие места, где провел свое детство. В детстве с его отцом произошла трагедия: он страдал каким-то заболеванием, от которого выл на луну и не спал по ночам во время полнолуния. Однажды местные жители обнаружили его рядом с задранной овцой и решили, что в него вселилась нечистая сила.
Доп. информация: За синхронизацию перевода огромное спасибо Нордер.

Автор рипа: Sem-te
Релиз от:
Исходник: Monster.Dog.1984.1080p.BluRay.AVC.DTS-HD.MA.2.0-FGT
Тип релиза: BDRip
Контейнер: AVI
Видео: 720x432 (1.67:1), 23.976 fps, XviD build 73 ~2274 kbps avg, 0.30 bit/pixel
Аудио 1: 48 kHz, AC3 Dolby Digital, 2/0 (L,R) ch, ~192 kbps | НТВ+
Аудио 2: 48 kHz, AC3 Dolby Digital, 2/0 (L,R) ch, ~192 kbps | Андрей Мудров (отдельно)
Аудио 3: 48 kHz, AC3 Dolby Digital, 2/0 (L,R) ch, ~192 kbps | Eng (отдельно)

MediaInfo

General
Format : AVI
Format/Info : Audio Video Interleave
File size : 1.46 GiB
Duration : 1h 24mn
Overall bit rate : 2 476 Kbps
Writing application : VirtualDubMod 1.5.10.3 | www.virtualdub-fr.org || (build 2550/release)
Writing library : VirtualDubMod build 2550/release
Video
ID : 0
Format : MPEG-4 Visual
Format profile : Advanced [email protected]
Format settings, BVOP : 1
Format settings, QPel : No
Format settings, GMC : No warppoints
Format settings, Matrix : Custom
Codec ID : XVID
Codec ID/Hint : XviD
Duration : 1h 24mn
Bit rate : 2 275 Kbps
Width : 720 pixels
Height : 432 pixels
Display aspect ratio : 1.667
Frame rate : 23.976 fps
Color space : YUV
Chroma subsampling : 4:2:0
Bit depth : 8 bits
Scan type : Progressive
Compression mode : Lossy
Bits/(Pixel*Frame) : 0.305
Stream size : 1.34 GiB (92%)
Writing library : XviD 73
Audio
ID : 1
Format : AC-3
Format/Info : Audio Coding 3
Mode extension : CM (complete main)
Format settings, Endianness : Big
Codec ID : 2000
Duration : 1h 24mn
Bit rate mode : Constant
Bit rate : 192 Kbps
Channel(s) : 2 channels
Channel positions : Front: L R
Sampling rate : 48.0 KHz
Bit depth : 16 bits
Compression mode : Lossy
Stream size : 116 MiB (8%)
Alignment : Split accross interleaves
Interleave, duration : 42 ms (1.00 video frame)
Interleave, preload duration : 500 ms

Скриншоты

If your ratio falls below 0.3, you will not be able to download Torrents! More about the rating.

[erzsebet.pl].t51624.torrent
Torrent: Registered   [ 2017-12-11 02:36 ]

Download .torrent

Download

18 KB

Status: checked
Completed: 16 times
Size: 1.69 GB
terms.php

#1

11-Dec-2017 01:29

[Profile]  [PM] 
Display posts:    

You cannot post new topics in this forum
You cannot reply to topics in this forum
You cannot edit your posts in this forum
You cannot delete your posts in this forum
You cannot vote in polls in this forum
You cannot attach files in this forum
You can download files in this forum
User agreement
For copyright holders
Advertise on this site

Скачайте на халяву через торрент на трекере erzsebet.pl

!ATTENTION!
The site does not give electronic versions of products, and is engaged only in a collecting and cataloguing of the references sent and published at a forum by our readers. If you are the legal owner of any submitted material and do not wish that the reference to it was in our catalogue, contact us and we shall immediately remove her. Files for an exchange on tracker are given by users of a site, and the administration does not bear the responsibility for their maintenance. The request to not fill in the files protected by copyrights, and also files of the illegal maintenance!