Дворец Наслаждений / Pleasure Palace (Уолтер Громан / Walter Grauman) [1980, США, драма, VHSRip] DVO (НТВ) + Original Eng

DL-List and Torrent activity
Size:  1.56 GB   |    Registered:  2 years 10 months   |    Completed:  16 times
Seeders:  2  
 
   
 
 

Max Levien ®

Longevity:
2 years 10 months
Posts:
20374

[Quote] 

Дворец Наслаждений / Pleasure Palace
Год выпуска: 1980
Страна: США
Жанр: драма
Продолжительность: 01:35:51
Перевод: Профессиональный (двухголосый закадровый) - НТВ
Субтитры: нет
Оригинальная аудиодорожка: английский
Режиссер: Уолтер Громан / Walter Grauman
В ролях: Омар Шариф (Louie Lefevre), Виктория Принципал (Patti Flynn), Дж.Д. Кэннон (Howland), Джералд С. О'Лофлин (Benny Marfo), Хосе Феррер («Pokey»), Хоуп Лэнг (Madelaine Calvert), Тедди Сиддолл (Bobby), Джон Фудзиока (Ito), Александер Цале (Hussein), Чак Хикс (Dietrich)-Мировая премьера: 22 октября 1980-Описание: Патти Флинн (Виктория Принципал) является агентом безопасности господина Хоуланда (Джей Ди Кэннон) в Лас-Вегасе. Ее задача – защитить драгоценности его жены Бобби (Тедди Сиддалл). Отъявленный картежник из Алжира Луи Лефевр (Омар Шариф), гость Мадлен Калверт (Хоуп Ланж) – владелицы Caesar's Palace, принимает ее за мошенницу и пытается завести интрижку, чтобы привлечь на свою сторону. У Луи очень специфическая миссия: его наняла Мадлен с целью отыграть у Хоуланда отель - победитель, как известно, получает все. Однако известие о том, что Патти Флинн – агент соперника, грозит зарождающему роману провалом…-Доп. информация:
За исходник видео с СГ большое спасибо edich2.
За оцифровку с видеокассеты перевода, записанного с телеканала НТВ в 90-х годах через видеомагнитофон неизвестным человеком большое спасибо Sp1end1d.
Синхронизация перевода - JUSTKANT.-Данный фильм вместе с русским переводом на трекере появляется впервые.
На русский язык фильм озвучен акционерным обществом Консул по заказу телекомпании НТВ.
Текст читали Сергей Полянский и Людмила Гнилова.-

MPAA: PG-13 - Детям до 13 лет просмотр не желателен.-Качество видео: VHSRip
Формат видео: AVI -> //SAMPLE//
Видео: XviD, 704x528 (4:3), 29.970 fps, 1935 kbps avg
Аудио:
1 - 48 khz, AC3 Dolby Digital, 2/0 (L,R) ch, ~192 kbps [НТВ] VHSRip
2 - 48 khz, AC3 Dolby Digital, 2/0 (L,R) ch, ~192 kbps [Английский] отдельным файлом

MediaInfo

General
Complete name : D:\Релизы на Трекере\Дворец Наслаждений (НТВ + Original Eng)\Дворец Наслаждений (НТВ).avi
Format : AVI
Format/Info : Audio Video Interleave
File size : 1.43 GiB
Duration : 1h 35mn
Overall bit rate : 2 139 Kbps
Writing application : VirtualDubMod 1.5.10.3 (build 2550/release)
Writing library : VirtualDubMod build 2550/release
Video
ID : 0
Format : MPEG-4 Visual
Format profile : Advanced [email protected]
Format settings, BVOP : 1
Format settings, QPel : No
Format settings, GMC : No warppoints
Format settings, Matrix : Custom
Codec ID : XVID
Codec ID/Hint : XviD
Duration : 1h 35mn
Bit rate : 1 935 Kbps
Width : 704 pixels
Height : 528 pixels
Display aspect ratio : 4:3
Frame rate : 29.970 fps
Color space : YUV
Chroma subsampling : 4:2:0
Bit depth : 8 bits
Scan type : Progressive
Compression mode : Lossy
Bits/(Pixel*Frame) : 0.174
Stream size : 1.30 GiB (90%)
Writing library : XviD 1.2.1 (UTC 2008-12-04)
Audio
ID : 1
Format : AC-3
Format/Info : Audio Coding 3
Mode extension : CM (complete main)
Format settings, Endianness : Big
Codec ID : 2000
Duration : 1h 35mn
Bit rate mode : Constant
Bit rate : 192 Kbps
Channel(s) : 2 channels
Channel positions : Front: L R
Sampling rate : 48.0 KHz
Compression mode : Lossy
Stream size : 132 MiB (9%)
Alignment : Split accross interleaves
Interleave, duration : 33 ms (1.00 video frame)
Interleave, preload duratio : 500 ms

Скриншот c названием фильма

Скриншоты

If your ratio falls below 0.3, you will not be able to download Torrents! More about the rating.

[erzsebet.pl].t51631.torrent
Torrent: Registered   [ 2017-12-11 02:36 ]

Download .torrent

Download

16 KB

Status: checked
Completed: 16 times
Size: 1.56 GB
terms.php

#1

11-Dec-2017 01:29

[Profile]  [PM] 
Display posts:    

You cannot post new topics in this forum
You cannot reply to topics in this forum
You cannot edit your posts in this forum
You cannot delete your posts in this forum
You cannot vote in polls in this forum
You cannot attach files in this forum
You can download files in this forum
User agreement
For copyright holders
Advertise on this site

Скачайте на халяву через торрент на трекере erzsebet.pl

!ATTENTION!
The site does not give electronic versions of products, and is engaged only in a collecting and cataloguing of the references sent and published at a forum by our readers. If you are the legal owner of any submitted material and do not wish that the reference to it was in our catalogue, contact us and we shall immediately remove her. Files for an exchange on tracker are given by users of a site, and the administration does not bear the responsibility for their maintenance. The request to not fill in the files protected by copyrights, and also files of the illegal maintenance!