Дрожь земли / Tremors (Рон Андервуд / Ron Underwood) [1990, США, ужасы, фантастика, комедия, BDRip] VO (неизвестный) + AVO (Леша-прапорщик)

DL-List and Torrent activity
Size:  1.46 GB   |    Registered:  2 years 10 months   |    Completed:  16 times
Seeders:  2  
 
   
 
 

Max Levien ®

Longevity:
2 years 10 months
Posts:
20374

[Quote] 

Дрожь земли / Tremors
Страна: США
Жанр: ужасы, фантастика, комедия
Год выпуска: 1990
Продолжительность: 01:35:38
Перевод 1: Одноголосый закадровый неизвестный?
Перевод 2: Авторский (одноголосый закадровый) Леша-прапорщик
Субтитры: нет
Оригинальная аудиодорожка: нет
Режиссер: Рон Андервуд / Ron Underwood
В ролях: Кевин Бэйкон, Фред Уорд, Финн Картер, Майкл Гросс, Риба МакИнтайр, Роберт Джейн, Шарлотта Стюарт, Тони Дженаро, Ариана Ричардс, Ричард Маркус и др.
Описание: Сезонные разнорабочие Вэл Макки и Эрл Бассетт решают покинуть крошечный город Перфекшн, что в штате Невада, но зловещие подземные толчки мешают их отъезду. С помощью студентки - сейсмолога они выясняют, что городок наводнен гигантскими плотоядными червями, обитающими под землей. Теперь кучке храбрецов предстоит вступить в битву с исполинскими тварями, которые решили полакомиться людьми.
Доп. информация:
Видеоряд взят из раздачи http://erzsebet.org/forum/viewtopic.php?t=4825929
Заменены дорожки ОРТ и оригинала на авторские переводы Вити-говоруна? и Леши-прапорщика.
Сэмпл: http://sendfile.su/1227362
Качество видео: BDRip
Формат видео: AVI
Видео: 704x384 (1.83:1), 23.976 fps, XviD MPEG-4 ~1785 kbps avg, 0.28 bits/(pixel*frame)
Аудио 1: 48 KHz, AC3, 2 channels (L, R) ~ 192 kbps avg
Аудио 2: 48 KHz, AC3, 2 channels (L, R) ~ 192 kbps avg

MediaInfo

General
Complete name : C:\Users\Desktop\AVI Rip\Upload\Torrent Upload\Tremors\Tremors.avi
Format : AVI
Format/Info : Audio Video Interleave
File size : 1.46 GiB
Duration : 1h 35mn
Overall bit rate : 2 184 Kbps
Movie name : Drozh.zemli.1990.2xRUS.BDRip.XviD.AC3.-HQCLUB
Director : Orbit
Writing application : VirtualDubMod 1.5.10.2 (build 2542/release)
Writing library : VirtualDubMod build 2542/release
Video
ID : 0
Format : MPEG-4 Visual
Format profile : Advanced [email protected]
Format settings, BVOP : 1
Format settings, QPel : No
Format settings, GMC : No warppoints
Format settings, Matrix : Custom
Codec ID : XVID
Codec ID/Hint : XviD
Duration : 1h 35mn
Bit rate : 1 786 Kbps
Width : 704 pixels
Height : 384 pixels
Display aspect ratio : 1.85:1
Frame rate : 23.976 fps
Color space : YUV
Chroma subsampling : 4:2:0
Bit depth : 8 bits
Scan type : Progressive
Compression mode : Lossy
Bits/(Pixel*Frame) : 0.276
Stream size : 1.19 GiB (82%)
Writing library : XviD 1.2.1 (UTC 2008-12-04)
Audio #1
ID : 1
Format : AC-3
Format/Info : Audio Coding 3
Mode extension : CM (complete main)
Format settings, Endianness : Big
Codec ID : 2000
Duration : 1h 35mn
Bit rate mode : Constant
Bit rate : 192 Kbps
Channel(s) : 2 channels
Channel positions : Front: L R
Sampling rate : 48.0 KHz
Compression mode : Lossy
Stream size : 131 MiB (9%)
Alignment : Split accross interleaves
Interleave, duration : 42 ms (1.00 video frame)
Interleave, preload duration : 500 ms
Audio #2
ID : 2
Format : AC-3
Format/Info : Audio Coding 3
Mode extension : CM (complete main)
Format settings, Endianness : Big
Codec ID : 2000
Duration : 1h 35mn
Bit rate mode : Constant
Bit rate : 192 Kbps
Channel(s) : 2 channels
Channel positions : Front: L R
Sampling rate : 48.0 KHz
Compression mode : Lossy
Stream size : 131 MiB (9%)
Alignment : Split accross interleaves
Interleave, duration : 42 ms (1.00 video frame)
Interleave, preload duration : 500 ms

Скриншоты

If your ratio falls below 0.3, you will not be able to download Torrents! More about the rating.

[erzsebet.pl].t51640.torrent
Torrent: Registered   [ 2017-12-11 02:36 ]

Download .torrent

Download

15 KB

Status: checked
Completed: 16 times
Size: 1.46 GB
terms.php

#1

11-Dec-2017 01:28

[Profile]  [PM] 
Display posts:    

You cannot post new topics in this forum
You cannot reply to topics in this forum
You cannot edit your posts in this forum
You cannot delete your posts in this forum
You cannot vote in polls in this forum
You cannot attach files in this forum
You can download files in this forum
User agreement
For copyright holders
Advertise on this site

Скачайте на халяву через торрент на трекере erzsebet.pl

!ATTENTION!
The site does not give electronic versions of products, and is engaged only in a collecting and cataloguing of the references sent and published at a forum by our readers. If you are the legal owner of any submitted material and do not wish that the reference to it was in our catalogue, contact us and we shall immediately remove her. Files for an exchange on tracker are given by users of a site, and the administration does not bear the responsibility for their maintenance. The request to not fill in the files protected by copyrights, and also files of the illegal maintenance!