Назад в школу / Снова в школу / Back to School (Алан Меттер / Alan Metter) [1986, США, комедия, HDRip] DVO (Пятый канал)

DL-List and Torrent activity
Size:  1.46 GB   |    Registered:  2 years 10 months   |    Completed:  16 times
Seeders:  3  
 
   
 
 

Max Levien ®

Longevity:
2 years 10 months
Posts:
20374

[Quote] 

Назад в школу / Снова в школу / Back to School
Год выпуска: 1986
Страна: США
Жанр: комедия
Продолжительность: 01:36:36
Перевод: Профессиональный (двухголосый закадровый) - Пятый канал
Субтитры: нет
Режиссер: Алан Меттер / Alan Metter
В ролях: Родни Дейнджерфилд (Thornton Melon), Сэлли Келлермен (Dr. Diane Turner), Берт Янг (Lou), Кит Гордон (Jason Melon), Роберт Дауни мл. (Derek Lutz), Уильям Забка (Chas), Пэкстон Уайтхед (Philip Barbay), Эдриенн Барбо (Vanessa), М. Эммет Уолш (Coach Turnbull), Терри Фаррелл (Valerie Desmond), Нед Битти (Dean David Martin)-Мировая премьера: 13 июля 1986-Описание: Для вас, поклонники "Семейки придурков" и "Тупого и ещё тупее". 57-летний миллионер, чтобы помочь сыну в учёбе, поступает в колледж и становится самым весёлым и прикольным студентом в мире. Популярнейший американский комедийный актёр Родни Дейнджерфилд в супер-кассовой классической комедии "Снова в школу", собравшей в кинотеатрах США 91 000 000 долларов.-Огромная благодарность:
team_6strun - исходник видео.
sven-sven - собственная запись фильма с переводом Пятого канала в 90-х через видеомагнитофон и оцифровка звука с видеокассеты.
JUSTKANT - синхронизация перевода.-Данный перевод на трекере появляется впервые..
Текст читают Александр Баргман и Александра Кожевникова.-
Рейтинг

MPAA: PG-13 - Детям до 13 лет просмотр не желателен.-Качество видео: HDRip
Формат видео: AVI -> //Сэмпл//
Видео: XviD, 720x384 (1.85:1), 23.976 fps, 1964 kbps
Аудио:
1 - 48 khz, AC3 Dolby Digital, 2/0 (L,R) ch, ~192 kbps [Пятый канал] VHSRip-ТВ

MediaInfo

General
Complete name : G:\Назад в школу (Пятый канал).avi
Format : AVI
Format/Info : Audio Video Interleave
File size : 1.46 GiB
Duration : 1 h 36 min
Overall bit rate : 2 165 kb/s
Movie name : Назад в школу / Снова в школу / Back to School (Пятый канал)
Director : JUSTKANT
Writing application : VirtualDubModRus 1.5.10.2 (build 2542/release)
Copyright : На русский язык фильм озвучен по заказу Пятого канала
Comment : Качество звука: VHSRip-ТВ (sven-sven)
Video
ID : 0
Format : MPEG-4 Visual
Format profile : Advanced [email protected]
Format settings, BVOP : 2
Format settings, QPel : No
Format settings, GMC : No warppoints
Format settings, Matrix : Default (MPEG)
Codec ID : XVID
Codec ID/Hint : XviD
Duration : 1 h 36 min
Bit rate : 1 964 kb/s
Width : 720 pixels
Height : 384 pixels
Display aspect ratio : 1.85:1
Frame rate : 23.976 (24000/1001) FPS
Color space : YUV
Chroma subsampling : 4:2:0
Bit depth : 8 bits
Scan type : Progressive
Compression mode : Lossy
Bits/(Pixel*Frame) : 0.296
Stream size : 1.33 GiB (91%)
Writing library : XviD 64
Audio
ID : 1
Format : AC-3
Format/Info : Audio Coding 3
Format settings, Endianness : Big
Codec ID : 2000
Duration : 1 h 36 min
Bit rate mode : Constant
Bit rate : 192 kb/s
Channel(s) : 2 channels
Channel positions : Front: L R
Sampling rate : 48.0 kHz
Frame rate : 31.250 FPS (1536 spf)
Bit depth : 16 bits
Compression mode : Lossy
Stream size : 133 MiB (9%)
Alignment : Split accross interleaves
Interleave, duration : 42 ms (1.00 video frame)
Interleave, preload duratio : 500 ms
Title : Пятый канал: Александр Баргман и Александра Кожевникова
Service kind : Complete Main

Скриншот c названием фильма

Скриншоты

If your ratio falls below 0.3, you will not be able to download Torrents! More about the rating.

[erzsebet.pl].t51648.torrent
Torrent: Registered   [ 2017-12-11 02:36 ]

Download .torrent

Download

15 KB

Status: checked
Completed: 16 times
Size: 1.46 GB
terms.php

#1

11-Dec-2017 01:28

[Profile]  [PM] 
Display posts:    

You cannot post new topics in this forum
You cannot reply to topics in this forum
You cannot edit your posts in this forum
You cannot delete your posts in this forum
You cannot vote in polls in this forum
You cannot attach files in this forum
You can download files in this forum
User agreement
For copyright holders
Advertise on this site

Скачайте на халяву через торрент на трекере erzsebet.pl

!ATTENTION!
The site does not give electronic versions of products, and is engaged only in a collecting and cataloguing of the references sent and published at a forum by our readers. If you are the legal owner of any submitted material and do not wish that the reference to it was in our catalogue, contact us and we shall immediately remove her. Files for an exchange on tracker are given by users of a site, and the administration does not bear the responsibility for their maintenance. The request to not fill in the files protected by copyrights, and also files of the illegal maintenance!