Все мы смертны / Any Man's Death (Том Клегг / Tom Clegg) [1990, ЮАР, драма, DVDRip] AVO (Антон Алексеев) + Original Eng

DL-List and Torrent activity
Size:  1.51 GB   |    Registered:  2 years 10 months   |    Completed:  16 times
Seeders:  3  
 
   
 
 

Max Levien ®

Longevity:
2 years 10 months
Posts:
20374

[Quote] 

Все мы смертны / Any Man's Death
«The search has begun ...»
Страна: ЮАР
Жанр: драма
Год выпуска: 1990
Продолжительность: 01:44:36
Перевод: Авторский (одноголосый закадровый) Антон Алексеев
Субтитры: нет
Оригинальная аудиодорожка: английский
Режиссер: Том Клегг / Tom Clegg
В ролях: Джон Сэведж, Уильям Хики, Миа Сара, Майкл Лернер, Эрнест Боргнайн
Описание: Аннотация от alenavova
Где-то в пустынных районах Намибии, близ границы с ЮАР, пропал без вести американский фотожурналист Гринлоу. На его поиски отправляется главный герой фильма-Леон. Но он не единственный, кто идет по следам исчезнувшего Гринлоу. Есть еще те, кому известно, что в круг общения фотожурналиста входили люди, знакомые с неким доктором Шиллером, бывшим нацистским преступником. Леон становится оружием в руках организации, которая занимается преследованием и уничтожением фашистских палачей. Как бы не были чудовищны их злодеяния, нравственно ли это-соглашаться на роль марионетки в чьих бы то ни было руках?...
Доп. информация: Дорожка с VO синхронизирована и наложена ale_x2008 при помощи Adobe Audition, Sony Vegas и VirtualDubMod.
За оцифрованную с VHS дорожку благодарим - Mixa_12345_mixa
Релиз
Сэмпл: https://yadi.sk/i/Hbd6Zu-13J889G
Качество видео: DVDRip
Формат видео: AVI
Видео: 640x480 (1.33:1), 25 fps, XviD build 73 ~1671 kbps avg, 0.22 bit/pixel
Аудио: AC3 Dolby Digital, 48000Hz, 2/0 (L,R) ch (mono), 192.00 kbps avg
Аудио 2: 48 kHz, AC3 Dolby Digital, 2/0 (L,R) ch, ~192 kbps

MediaInfo

Все мы смертны (Any Man's Death) [by ale_x2008].avi
Format : AVI
Format/Info : Audio Video Interleave
File size : 1.51 GiB
Duration : 1 h 44 min
Overall bit rate : 2 070 kb/s
Movie name : Все мы смертны (Any Man's Death) [by ale_x2008]
Director : by ale_x2008
Writing application : VirtualDubMod 1.5.10.2 (build 2540/release)
Copyright : Edich2
Comment : erzsebet.org
Video
ID : 0
Format : MPEG-4 Visual
Format profile : Advanced [email protected]
Format settings, BVOP : 2
Format settings, QPel : No
Format settings, GMC : No warppoints
Format settings, Matrix : Custom
Codec ID : XVID
Codec ID/Hint : XviD
Duration : 1 h 44 min
Bit rate : 1 672 kb/s
Width : 640 pixels
Height : 480 pixels
Display aspect ratio : 4:3
Frame rate : 25.000 FPS
Color space : YUV
Chroma subsampling : 4:2:0
Bit depth : 8 bits
Scan type : Progressive
Compression mode : Lossy
Bits/(Pixel*Frame) : 0.218
Stream size : 1.22 GiB (81%)
Writing library : XviD 73
Audio #1
ID : 1
Format : AC-3
Format/Info : Audio Coding 3
Format settings, Endianness : Big
Codec ID : 2000
Duration : 1 h 44 min
Bit rate mode : Constant
Bit rate : 192 kb/s
Channel(s) : 2 channels
Channel positions : Front: L R
Sampling rate : 48.0 kHz
Frame rate : 31.250 FPS (1536 spf)
Bit depth : 16 bits
Compression mode : Lossy
Stream size : 144 MiB (9%)
Alignment : Split accross interleaves
Interleave, duration : 40 ms (1.00 video frame)
Interleave, preload duratio : 500 ms
Service kind : Complete Main
Audio #2
ID : 2
Format : AC-3
Format/Info : Audio Coding 3
Format settings, Endianness : Big
Codec ID : 2000
Duration : 1 h 44 min
Bit rate mode : Constant
Bit rate : 192 kb/s
Channel(s) : 2 channels
Channel positions : Front: L R
Sampling rate : 48.0 kHz
Frame rate : 31.250 FPS (1536 spf)
Bit depth : 16 bits
Compression mode : Lossy
Stream size : 144 MiB (9%)
Alignment : Split accross interleaves
Interleave, duration : 40 ms (1.00 video frame)
Interleave, preload duratio : 500 ms
Service kind : Complete Main

Скриншоты


If your ratio falls below 0.3, you will not be able to download Torrents! More about the rating.

[erzsebet.pl].t51649.torrent
Torrent: Registered   [ 2017-12-11 02:36 ]

Download .torrent

Download

16 KB

Status: checked
Completed: 16 times
Size: 1.51 GB
terms.php

#1

11-Dec-2017 01:28

[Profile]  [PM] 
Display posts:    

You cannot post new topics in this forum
You cannot reply to topics in this forum
You cannot edit your posts in this forum
You cannot delete your posts in this forum
You cannot vote in polls in this forum
You cannot attach files in this forum
You can download files in this forum
User agreement
For copyright holders
Advertise on this site

Скачайте на халяву через торрент на трекере erzsebet.pl

!ATTENTION!
The site does not give electronic versions of products, and is engaged only in a collecting and cataloguing of the references sent and published at a forum by our readers. If you are the legal owner of any submitted material and do not wish that the reference to it was in our catalogue, contact us and we shall immediately remove her. Files for an exchange on tracker are given by users of a site, and the administration does not bear the responsibility for their maintenance. The request to not fill in the files protected by copyrights, and also files of the illegal maintenance!