Без Компромиссов / Нечестная сделка / Raw Deal (Джон Ирвин / John Irvin) [1986, США, боевик, криминал, триллер, BDRip-AVC] DVO (R.U.S.C.I.C.O) + Original (eng) + Sub (rus, eng)

DL-List and Torrent activity
Size:  3.22 GB   |    Registered:  2 years 10 months   |    Completed:  16 times
Seeders:  2  
 
   
 
 

Max Levien ®

Longevity:
2 years 10 months
Posts:
20374

[Quote] 

Без Компромиссов / Raw Deal- Страна: США
Жанр: боевик, криминал, триллер
Год выпуска: 1986
Продолжительность: 01:45:35
Перевод: Профессиональный (двухголосый закадровый, R.U.S.C.I.C.O)
Оригинал (английский)
Субтитры: rus, eng
Навигация по главам: есть
Режиссер: Джон Ирвин / John Irvin
В ролях: Арнольд Шварценеггер, Кэтрин Харольд, Дэррен МакГэвин, Сэм Уонамейкер, Пол Шенар, Стивен Хилл, Джо Регалбуто, Роберт Дави, Эд Лотер, Мордекай Лоунер
Описание: Уволенный из ФБР за «чрезмерное применение силы» агент Марк Каминский работает шерифом в маленьком городке. Но когда понадобился человек, чтобы внедриться в чикагскую мафию, бывшее начальство Марка решило, что лучше него с этим заданием не справится никто. Марку придется действовать без всякой поддержки местной полиции, ничего не знающей о его тайной миссии. Действуя в одиночку против целого гангстерского синдиката, Марк должен «взять» могущественного и жестокого главу чикагской организованной преступности. В случае успеха Марка провозгласят героем и восстановят на службе. Не привыкший отступать перед опасностью, Марк охотно берется за дело. Он полон решимости «железной рукой» навести порядок в Чикаго
семпл
Качество видео: BDRip-AVC
Формат видео: MKV
Формат аудио: AC3
Видео: 1150*488 (2.36), 24 fps, x264, 3465 kbit/s
Аудио 1: AC3, 48 khz, 6 ch, 448 kbit/s rus
Аудио 2: AC3, 48 khz, 6 ch, 448 kbit/s eng отдельно

модераторам

в фильме плавающий кроп

дополнительные аудиодорожки

http://erzsebet.org/forum/viewtopic.php?t=4787329

сравнение

BD / jt38 / sanok87 2.5 GB





log x264

x264 [info]: profile High, level 4.1
x264 [info]: cabac=1 ref=15 deblock=1:-3:-2 analyse=0x3:0x133 me=umh subme=11 psy=1 fade_compensate=0.00 psy_rd=1.10:0.10 mixed_ref=1 me_range=64 chroma_me=1 trellis=2 8x8dct=1 cqm=0 deadzone=21,11 fast_pskip=0 chroma_qp_offset=-3 threads=16 lookahead_threads=3 sliced_threads=0 nr=0 decimate=1 interlaced=0 bluray_compat=0 constrained_intra=0 fgo=0 bframes=16 b_pyramid=2 b_adapt=2 b_bias=0 direct=3 weightb=1 open_gop=0 weightp=2 keyint=250 keyint_min=24 scenecut=40 intra_refresh=0 rc=crf mbtree=0 crf=19.4500 qcomp=0.60 qpmin=0 qpmax=69 qpstep=4 ip_ratio=1.40 pb_ratio=1.20 aq=1:1.00
x264 [info]: frame I:1044 Avg QP:18.20 size: 81492
x264 [info]: frame P:30850 Avg QP:19.78 size: 29824
x264 [info]: frame B:120169 Avg QP:21.11 size: 14474
x264 [info]: consecutive B-frames: 1.5% 1.8% 6.3% 14.5% 17.3% 47.0% 6.2% 2.4% 1.2% 0.7% 0.4% 0.2% 0.1% 0.1% 0.0% 0.0% 0.1%
x264 [info]: mb I I16..4: 8.4% 79.6% 12.0%
x264 [info]: mb P I16..4: 0.2% 14.2% 0.9% P16..4: 31.7% 37.1% 12.6% 1.3% 0.1% skip: 1.8%
x264 [info]: mb B I16..4: 0.0% 2.0% 0.1% B16..8: 41.2% 21.5% 3.9% direct: 8.4% skip:23.0% L0:45.3% L1:45.3% BI: 9.4%
x264 [info]: 8x8 transform intra:91.7% inter:60.6%
x264 [info]: direct mvs spatial:100.0% temporal:0.0%
x264 [info]: coded y,uvDC,uvAC intra: 96.7% 79.5% 47.0% inter: 38.5% 32.6% 1.5%
x264 [info]: i16 v,h,dc,p: 17% 17% 21% 45%
x264 [info]: i8 v,h,dc,ddl,ddr,vr,hd,vl,hu: 9% 7% 11% 10% 14% 12% 13% 11% 13%
x264 [info]: i4 v,h,dc,ddl,ddr,vr,hd,vl,hu: 10% 11% 7% 8% 14% 13% 14% 10% 13%
x264 [info]: i8c dc,h,v,p: 38% 29% 18% 14%
x264 [info]: Weighted P-Frames: Y:17.5% UV:9.9%
x264 [info]: ref P L0: 39.2% 11.7% 17.3% 6.8% 5.6% 4.1% 3.7% 2.0% 1.9% 1.5% 1.4% 1.2% 1.2% 1.0% 1.1% 0.2%
x264 [info]: ref B L0: 66.8% 12.1% 6.3% 3.4% 2.6% 2.2% 1.8% 1.1% 0.9% 0.9% 0.7% 0.7% 0.4% 0.2%
x264 [info]: ref B L1: 91.5% 8.5%
x264 [info]: kb/s:3465.20

MI

Общее
Уникальный идентификатор : 191719235784138889821804829844625658976 (0x903BC81E392A59979C05AD72B8DF9460)
Полное имя : Bez.Kompromissov.1986.BDRip.x264.ac3.[erzsebet.org].mkv
Формат : Matroska
Версия формата : Version 4 / Version 2
Размер файла : 2,89 Гбайт
Продолжительность : 1 ч. 45 м.
Режим общего битрейта : Переменный
Общий поток : 3918 Кбит/сек
Дата кодирования : UTC 2014-07-20 22:15:32
Программа кодирования : mkvmerge v6.5.0 ('Isn't she lovely') built on Oct 20 2013 12:50:05
Библиотека кодирования : libebml v1.3.0 + libmatroska v1.4.1
Обложка : Yes
Видео
Идентификатор : 1
Формат : AVC
Формат/Информация : Advanced Video Codec
Профиль формата : [email protected]
Параметр CABAC формата : Да
Параметр ReFrames формата : 15 кадров
Идентификатор кодека : V_MPEG4/ISO/AVC
Продолжительность : 1 ч. 45 м.
Вид битрейта : Переменный
Битрейт : 3392 Кбит/сек
Максимальный битрейт : 40,0 Мбит/сек
Ширина : 1150 пикселей
Высота : 488 пикселей
Соотношение сторон : 2,35:1
Режим частоты кадров : Постоянный
Частота кадров : 24,000 кадра/сек
Цветовое пространство : YUV
Субдискретизация насыщенности : 4:2:0
Битовая глубина : 8 бит
Тип развёртки : Прогрессивная
Бит/(Пиксели*Кадры) : 0.252
Размер потока : 2,50 Гбайт (87%)
Библиотека кодирования : x264 core 142 r2431kMod ac76440
Настройки программы : cabac=1 / ref=15 / deblock=1:-3:-2 / analyse=0x3:0x133 / me=umh / subme=11 / psy=1 / fade_compensate=0.00 / psy_rd=1.10:0.10 / mixed_ref=1 / me_range=64 / chroma_me=1 / trellis=2 / 8x8dct=1 / cqm=0 / deadzone=21,11 / fast_pskip=0 / chroma_qp_offset=-3 / threads=16 / lookahead_threads=3 / sliced_threads=0 / nr=0 / decimate=1 / interlaced=0 / bluray_compat=0 / constrained_intra=0 / fgo=0 / bframes=16 / b_pyramid=2 / b_adapt=2 / b_bias=0 / direct=3 / weightb=1 / open_gop=0 / weightp=2 / keyint=250 / keyint_min=24 / scenecut=40 / intra_refresh=0 / rc=crf / mbtree=0 / crf=19.4500 / qcomp=0.60 / qpmin=0 / qpmax=69 / qpstep=4 / ip_ratio=1.40 / pb_ratio=1.20 / aq=1:1.0
Язык : English
Default : Да
Forced : Нет
Коэффициенты матрицы : BT.709
Аудио
Идентификатор : 2
Формат : AC-3
Формат/Информация : Audio Coding 3
Расширение режима : CM (complete main)
Параметр Endianness формата : Big
Идентификатор кодека : A_AC3
Продолжительность : 1 ч. 45 м.
Вид битрейта : Постоянный
Битрейт : 448 Кбит/сек
Каналы : 6 каналов
Расположение каналов : Front: L C R, Side: L R, LFE
Частота : 48,0 КГц
Битовая глубина : 16 бит
Метод сжатия : С потерями
Размер потока : 338 Мбайт (11%)
Заголовок : dvo ruscico
Язык : Russian
Default : Да
Forced : Нет
Текст #1
Идентификатор : 3
Формат : UTF-8
Идентификатор кодека : S_TEXT/UTF8
Идентификатор кодека/Информация : UTF-8 Plain Text
Язык : Russian
Default : Нет
Forced : Нет
Текст #2
Идентификатор : 4
Формат : UTF-8
Идентификатор кодека : S_TEXT/UTF8
Идентификатор кодека/Информация : UTF-8 Plain Text
Язык : English
Default : Нет
Forced : Нет
Меню
00:00:00.000 : en:00:00:00.000
00:08:25.333 : en:00:08:25.333
...
01:42:25.167 : en:01:42:25.167
Релиз группы

If your ratio falls below 0.3, you will not be able to download Torrents! More about the rating.

[erzsebet.pl].t51650.torrent
Torrent: Registered   [ 2017-12-11 02:36 ]

Download .torrent

Download

17 KB

Status: checked
Completed: 16 times
Size: 3.22 GB
terms.php

#1

11-Dec-2017 01:28

[Profile]  [PM] 
Display posts:    

You cannot post new topics in this forum
You cannot reply to topics in this forum
You cannot edit your posts in this forum
You cannot delete your posts in this forum
You cannot vote in polls in this forum
You cannot attach files in this forum
You can download files in this forum
User agreement
For copyright holders
Advertise on this site

Скачайте на халяву через торрент на трекере erzsebet.pl

!ATTENTION!
The site does not give electronic versions of products, and is engaged only in a collecting and cataloguing of the references sent and published at a forum by our readers. If you are the legal owner of any submitted material and do not wish that the reference to it was in our catalogue, contact us and we shall immediately remove her. Files for an exchange on tracker are given by users of a site, and the administration does not bear the responsibility for their maintenance. The request to not fill in the files protected by copyrights, and also files of the illegal maintenance!